[ Сегодня идет свободное скачивание без начисления Download ]


Статистика раздачи
Нет
 
   
 
Top  
 
 
Любовница из Москвы
Жанр: Комедия
Год выпуска: 2001
Продолжительность: 1:02:27
Режиссёр: Анатолий Эйрамджан
В ролях: Аркадий Укупник, Екатерина Зинченко, Александр Панкратов-Чёрный, Ирина Шмелёва, Борис Щербаков, Дэвид Безуб, Дэниель Соркин, Наталья Гольденберг, Ольга Карпович, Алексей Гогота, Михаил Малинкович, Елена Сосновская, Владимир Соколов (IV), Оксана Шагдар, Наталья Нистратова, Константин Тер-Григорьян, Светлана Постемская, Максим Рукавишников
Описание: Незатейливая комедия о том, как двое женатых друзей, проживающих в Майами, истосковавшись по женскому обществу, воспользовались предложением приятеля, проживающего в Москве, и вызвали к себе любовницу из столицы. Она, не долго думая, задурила им голову, ни с кем из них не переспала, но зато нашла себе мужа-миллионера. Ну что ж, надо вызывать следующую, решили друзья, а лучше двух...
Доп. информация: Производство: Киностудия "Новый Одеон"
На видео местами присутствуют баннеры
Сэмпл: https://www.sendspace.com/file/5wpbi3
Качество видео: SATRip
Формат видео: AVI
Видео: XviD MPEG-4 , 704x528 (1.33:1) , 25 fps ,2303 Kbps avg
Аудио: AC3 , 48 kHz , 192.00 kbps avg , 2/0 (L,R) ch

MediaInfo

Complete name Любовница из Москвы 2001.avi
Format : AVI
Format/Info : Audio Video Interleave
File size : 1.09 GiB
Duration : 1h 2mn
Overall bit rate : 2 505 Kbps
Writing library : VirtualDub build 35491/release
Video
ID : 0
Format : MPEG-4 Visual
Format profile : Advanced [email protected]
Format settings, BVOP : 2
Format settings, QPel : No
Format settings, GMC : No warppoints
Format settings, Matrix : Default (H.263)
Codec ID : XVID
Codec ID/Hint : XviD
Duration : 1h 2mn
Bit rate : 2 303 Kbps
Width : 704 pixels
Height : 528 pixels
Display aspect ratio : 4:3
Frame rate : 25.000 fps
Color space : YUV
Chroma subsampling : 4:2:0
Bit depth : 8 bits
Scan type : Progressive
Compression mode : Lossy
Bits/(Pixel*Frame) : 0.248
Stream size : 1.00 GiB (92%)
Writing library : XviD 1.2.1 (UTC 2008-12-04)
Audio
ID : 1
Format : AC-3
Format/Info : Audio Coding 3
Mode extension : CM (complete main)
Format settings, Endianness : Big
Codec ID : 2000
Duration : 1h 2mn
Bit rate mode : Constant
Bit rate : 192 Kbps
Channel(s) : 2 channels
Channel positions : Front: L R
Sampling rate : 48.0 KHz
Bit depth : 16 bits
Compression mode : Lossy
Stream size : 85.8 MiB (8%)
Alignment : Aligned on interleaves
Interleave, duration : 40 ms (1.00 video frame)
Interleave, preload duration : 512 ms

Скриншот c названием фильма

Скриншоты

[Цитировать]



Показать сообщения:    

Текущее время: 04-Дек 13:18

Часовой пояс: UTC + 3


Вы не можете начинать темы
Вы не можете отвечать на сообщения
Вы не можете редактировать свои сообщения
Вы не можете удалять свои сообщения
Вы не можете голосовать в опросах
Вы не можете прикреплять файлы к сообщениям
Вы не можете скачивать файлы

!ВНИМАНИЕ!
Сайт не предоставляет электронные версии произведений, а занимается лишь коллекционированием и каталогизацией ссылок, присылаемых и публикуемых на форуме нашими читателями. Если вы являетесь правообладателем какого-либо представленного материала и не желаете, чтобы ссылка на него находилась в нашем каталоге, свяжитесь с нами, и мы незамедлительно удалим ее. Файлы для обмена на трекере предоставлены пользователями сайта, и администрация не несет ответственности за их содержание. Просьба не заливать файлы, защищенные авторскими правами, а также файлы нелегального содержания!