[ Сегодня идет свободное скачивание без начисления Download ]


Статистика раздачи
Нет
 
   
 
Top  
 
 
Мистер Робот / Mr. Robot (1 сезон)- Год выпуска: 2015
Страна: США, USA Network
Жанр: Драма, психологический триллер
Продолжительность: ~00:45:00
Перевод: Профессиональный многоголосый закадровый [NewStudio]-Режиссёры: Нильс Арден Оплев / Niels Arden Oplev, Сэм Эсмейл / Sam Esmail, Джим МакКей / Jim McKay, Ниша Ганатра / Nisha Ganatra
В ролях: Рами Малек / Rami Malek, Брюс Олтмен / Bruce Altman, Майкл Бушеми / Michael Buscemi, Карли Чаикин / Carly Chaikin, Самрат Чакрабарти / Samrat Chakrabarti, Портия Даблдэй / Portia Doubleday, Майкл Гилл / Michael Gill, Кристиан Слэйтер / Christian Slater и др.-Описание:
История молодого программиста Эллиота, страдающего диссоциальным расстройством личности и решившего, что единственный приемлемый для него способ взаимодействия с людьми — это профессия хакера. Таким образом, он быстро оказывается в том самом месте, где пересекаются интересы его работодателя — фирмы, занимающейся кибербезопасностью, — и подпольных организаций, которые пытаются его завербовать с целью обрушения самых могучих американских корпораций.-Дополнительная информация:
-Релиз:

Перевод: Григорий Сенин-
-
-Качество: WEB-DLRip
Контейнер: AVI
Видео: XviD, 720x400 (1.80:1), 23.976 fps, ~1400 kbps, ~0.20 bit/pixel
Аудио #1: Русский многоголосый: MP3, 48 kHz, 2 канала, 128 kbps | NewStudio
Аудио #2: Английский оригинал: MP3, 48 kHz, 2 канала, 128 kbps
Субтитры: Русские (Нотабеноид), английские (отдельно, srt-файлами)-

Список эпизодов:

01. eps1.0_hellofriend.mov (01:04:52)
02. eps1.1_ones-and-zer0es.mpeg (00:47:11)
03. eps1.2_d3bug.mkv (00:45:10)
04. eps1.3_da3m0ns.mp4 (00:45:09)
05. eps1.4_3xpl0its.wmv (00:45:09)
06. eps.1.5_br4ve-trave1er.asf (00:44:39)
07. eps1.6_v1ew-s0urce.flv (00:44:59)
08. eps1.7_wh1ter0se.m4v (00:45:07)
09. eps1.8_m1rr0r1ng.qt (00:49:07)
10. eps1.9_zer0-day.avi (00:54:06)

-

MediaInfo

Формат : AVI
Формат/Информация : Audio Video Interleave
Размер файла : 700 Мбайт
Продолжительность : 1 ч. 5 м.
Общий поток : 1499 Кбит/сек
Программа кодирования : VirtualDubMod 1.5.10.2 (build 2540/release)
Библиотека кодирования : VirtualDubMod build 2540/release
Видео
Идентификатор : 0
Формат : MPEG-4 Visual
Профиль формата : Advanced [email protected]
Параметр BVOP формата : 2
Параметр QPel формата : Нет
Параметр GMC формата : Без точки перехода
Параметр матрицы формата : Default (MPEG)
Идентификатор кодека : XVID
Идентификатор кодека/Подсказка : XviD
Продолжительность : 1 ч. 5 м.
Битрейт : 1230 Кбит/сек
Ширина : 720 пикселей
Высота : 400 пикселей
Соотношение сторон : 16:9
Частота кадров : 23,976 кадра/сек
Цветовое пространство : YUV
Субдискретизация насыщенности : 4:2:0
Битовая глубина : 8 бит
Тип развёртки : Прогрессивная
Метод сжатия : С потерями
Бит/(Пиксели*Кадры) : 0.178
Размер потока : 574 Мбайт (82%)
Библиотека кодирования : XviD 64
Аудио #1
Идентификатор : 1
Формат : MPEG Audio
Версия формата : Version 1
Профиль формата : Layer 3
Режим : Joint stereo
Расширение режима : MS Stereo
Идентификатор кодека : 55
Идентификатор кодека/Подсказка : MP3
Продолжительность : 1 ч. 5 м.
Вид битрейта : Постоянный
Битрейт : 128 Кбит/сек
Каналы : 2 канала
Частота : 48,0 КГц
Метод сжатия : С потерями
Размер потока : 59,8 Мбайт (9%)
Выравнивание : Соединение по промежуткам
Продолжительность промежутка : 42 мс. (1,00 видеокадр)
Время предзагрузки промежутка : 504 мс.
Аудио #2
Идентификатор : 2
Формат : MPEG Audio
Версия формата : Version 1
Профиль формата : Layer 3
Режим : Joint stereo
Расширение режима : MS Stereo
Идентификатор кодека : 55
Идентификатор кодека/Подсказка : MP3
Продолжительность : 1 ч. 5 м.
Вид битрейта : Постоянный
Битрейт : 128 Кбит/сек
Каналы : 2 канала
Частота : 48,0 КГц
Метод сжатия : С потерями
Размер потока : 59,8 Мбайт (9%)
Выравнивание : Соединение по промежуткам
Продолжительность промежутка : 42 мс. (1,00 видеокадр)
Время предзагрузки промежутка : 504 мс.
Библиотека кодирования : LAME3.99r
Настройки программы : -m j -V 4 -q 2 -lowpass 17 -b 128

Скриншоты

Раздача ведётся путём добавления новых серий

Внимание! Раздача ведётся путём добавления новых серий; при каждом добавлении создаётся новый торрент. Чтобы начать докачку новой серии, пользователям необходимо сделать следующее:
(1) остановить скачивание,
(2) удалить старый торрент у себя из клиента (старые серии удалять не надо),
(3) скачать новый торрент и запустить его у себя в клиенте вместо старого, при этом указать клиенту путь в старую папку куда и должно происходить скачивание новых серий.
Ваш клиент при этом должен произвести хеширование (проверку) старой папки (если не производит сам - помогите ему сделать это), и будет докачивать только те серии которых у вас ещё нет. Старые серии при этом не удаляются, а продолжают раздаваться!
Eсли вы уже удалили старые серии, то предотвратить повторную закачку старых серий можно, отжав галочку в соответствующих местах при запуске нового торрента. По возможности, желательно не удалять старые серии как можно дольше чтобы релизёр не столько продолжал раздавать старые серии, а смог сконцентрироваться на новых.
Добавлена ФИНАЛЬНАЯ 10 серия! (05/09/2015)Пожалуйста перезакачайте торрент-файл и обновите раздачу!

[Цитировать]



Показать сообщения:    

Текущее время: 06-Дек 03:55

Часовой пояс: UTC + 3


Вы не можете начинать темы
Вы не можете отвечать на сообщения
Вы не можете редактировать свои сообщения
Вы не можете удалять свои сообщения
Вы не можете голосовать в опросах
Вы не можете прикреплять файлы к сообщениям
Вы не можете скачивать файлы

!ВНИМАНИЕ!
Сайт не предоставляет электронные версии произведений, а занимается лишь коллекционированием и каталогизацией ссылок, присылаемых и публикуемых на форуме нашими читателями. Если вы являетесь правообладателем какого-либо представленного материала и не желаете, чтобы ссылка на него находилась в нашем каталоге, свяжитесь с нами, и мы незамедлительно удалим ее. Файлы для обмена на трекере предоставлены пользователями сайта, и администрация не несет ответственности за их содержание. Просьба не заливать файлы, защищенные авторскими правами, а также файлы нелегального содержания!