[ Сегодня идет свободное скачивание без начисления Download ]


Статистика раздачи
Нет
 
   
 
Top  
 
 
Прослушка / The Wire
Год выпуска: 2002
Страна: США
Жанр: криминальная драма
Продолжительность: 01:00:00
Перевод: Авторский (одноголосый закадровый) Ю. Сербин
Режиссёр: Кларк Джонсон / Clark Johnson
В ролях: Доминик Уэст, Идрис Эльба, Джон Доумен, Уенделл Пирс, Лэнс Реддик, Дирдри Лавджой, Соня Сон, Сет Гиллиам, Доменик Ломбардоцци, Кларк Питерс, Андре Рой и др.
Описание: Подразделение полицейских в Балтиморе пытается с помощью специальных средств и мероприятий по прослушиванию и скрытой видеосъемке довести до суда расследование преступлений организованных преступных групп, которые занимаются незаконным распространением наркотиков.

Работа с видео: whip93
Релиз:
Качество: BDRip
Формат: AVI
Видео: Xvid, 720x400 (16:9), 23.976 fps, ~ 2000 kbps
Аудио 1: AC3, 48 kHz, 6 ch, 384 kbps (русский)
Аудио 2: AC3, 48 kHz, 6 ch, 384 kbps (английский)
Субтитры: отсутствуют

Список серий

01. The Target
02. The Detail
03. The Buys
04. Old Cases
05. The Pager
06. The Wire
07. One Arrest
08. Lessons
09. Game Day
10. The Cost
11. The Hunt
12. Cleaning Up
13. Sentencing

MediaInfo

General
Complete name : D:\Фильмы\The Wire Season 1 CasStudio.TV\The.Wire.S01E01.BDRip.DUAL.CasStudio.TV.avi
Format : AVI
Format/Info : Audio Video Interleave
File size : 1.21 GiB
Duration : 1h 2mn
Overall bit rate : 2 795 Kbps
Movie name : The Wire
Director : whip93
Subject : S01E01
Writing application : VirtualDubMod 1.5.10.3 | www.virtualdub-fr.org || (build 2550/release)
Writing library : VirtualDubMod build 2550/release
Copyright : CasStudio.TV
Video
ID : 0
Format : MPEG-4 Visual
Format profile : Advanced Simple@L5
Format settings, BVOP : 1
Format settings, QPel : No
Format settings, GMC : No warppoints
Format settings, Matrix : Default (MPEG)
Codec ID : XVID
Codec ID/Hint : XviD
Duration : 1h 2mn
Bit rate : 2 013 Kbps
Width : 720 pixels
Height : 400 pixels
Display aspect ratio : 16:9
Frame rate : 23.976 fps
Color space : YUV
Chroma subsampling : 4:2:0
Bit depth : 8 bits
Scan type : Progressive
Compression mode : Lossy
Bits/(Pixel*Frame) : 0.292
Stream size : 894 MiB (72%)
Writing library : XviD 73
Audio #1
ID : 1
Format : AC-3
Format/Info : Audio Coding 3
Mode extension : CM (complete main)
Format settings, Endianness : Big
Codec ID : 2000
Duration : 1h 2mn
Bit rate mode : Constant
Bit rate : 384 Kbps
Channel(s) : 6 channels
Channel positions : Front: L C R, Side: L R, LFE
Sampling rate : 48.0 KHz
Bit depth : 16 bits
Compression mode : Lossy
Stream size : 171 MiB (14%)
Alignment : Split accross interleaves
Interleave, duration : 42 ms (1.00 video frame)
Interleave, preload duration : 500 ms
Audio #2
ID : 2
Format : AC-3
Format/Info : Audio Coding 3
Mode extension : CM (complete main)
Format settings, Endianness : Big
Codec ID : 2000
Duration : 1h 2mn
Bit rate mode : Constant
Bit rate : 384 Kbps
Channel(s) : 6 channels
Channel positions : Front: L C R, Side: L R, LFE
Sampling rate : 48.0 KHz
Bit depth : 16 bits
Compression mode : Lossy
Stream size : 171 MiB (14%)
Alignment : Split accross interleaves
Interleave, duration : 42 ms (1.00 video frame)
Interleave, preload duration : 500 ms

Скриншоты

[Цитировать]



Показать сообщения:    

Текущее время: 07-Дек 21:23

Часовой пояс: UTC + 3


Вы не можете начинать темы
Вы не можете отвечать на сообщения
Вы не можете редактировать свои сообщения
Вы не можете удалять свои сообщения
Вы не можете голосовать в опросах
Вы не можете прикреплять файлы к сообщениям
Вы не можете скачивать файлы

!ВНИМАНИЕ!
Сайт не предоставляет электронные версии произведений, а занимается лишь коллекционированием и каталогизацией ссылок, присылаемых и публикуемых на форуме нашими читателями. Если вы являетесь правообладателем какого-либо представленного материала и не желаете, чтобы ссылка на него находилась в нашем каталоге, свяжитесь с нами, и мы незамедлительно удалим ее. Файлы для обмена на трекере предоставлены пользователями сайта, и администрация не несет ответственности за их содержание. Просьба не заливать файлы, защищенные авторскими правами, а также файлы нелегального содержания!