[ Сегодня идет свободное скачивание без начисления Download ]


Статистика раздачи
Нет
 
   
 
Top  
 
 
Мы и они / Us & Them
Год выпуска: 2013
Страна: США
Жанр: комедия
Продолжительность: 00:20:00
Перевод: Профессиональный (многоголосый закадровый) SET
Режиссёр: Майкл Патрик Джэнн, Джей Чандрашекхар, Мэттью Сон
В ролях: Джейсон Риттер, Алексис Бледел, Дастин Ибарра, Эшли Эткинсон, Джейн Качмарек, Курт Фуллер, Керри Кенни, Майкл Йен Блэк, Майкл Коул, Брайан Джеймс Пепе
Описание:
Сериал «Мы и они» создан на основе чрезвычайно популярного сериала «Гэвин и Стейси» с Джейсоном Риттером и Алексис Бледел в главных ролях. Это комедия о молодой паре, чей путь к «долго и счастливо» осложняется окружающим их «цирком», который устраивают закомплексованные родственники и друзья.

Ссылка на предыдущие и альтернативные раздачи:
Сэмпл: http://multi-up.com/986402
Качество: HDTV 1080i
Контейнер: TS
Видео: 1920x1080 at 25.000 fps, MPEG-4 AVC, ~6.4 Mbps avg, 0.12 bit/pixel
Аудио #1: Russian: 48 kHz, AC3, 3/2 (L,C,R,l,r) + LFE ch, ~384.00 kbps avg |Многоголосый закадровый, SET|
Аудио #2: English: 48 kHz, AC3, 3/2 (L,C,R,l,r) + LFE ch, ~384.00 kbps avg
Субтитры: отсутствуют

MediaInfo

General
ID                                       : 1 (0x1)
Complete name                            : SET HD_Мы и они 1x01.ts
Format                                   : MPEG-TS
File size                                : 1.09 GiB
Duration                                 : 20mn 40s
Overall bit rate mode                    : Variable
Overall bit rate                         : 7 530 Kbps
Video
ID                                       : 4113 (0x1011)
Menu ID                                  : 1 (0x1)
Format                                   : AVC
Format/Info                              : Advanced Video Codec
Format profile                           : High@L4.0
Format settings, CABAC                   : Yes
Format settings, ReFrames                : 3 frames
Codec ID                                 : 27
Duration                                 : 20mn 40s
Bit rate mode                            : Variable
Bit rate                                 : 6 382 Kbps
Maximum bit rate                         : 40.0 Mbps
Width                                    : 1 920 pixels
Height                                   : 1 080 pixels
Display aspect ratio                     : 16:9
Frame rate                               : 25.000 fps
Color space                              : YUV
Chroma subsampling                       : 4:2:0
Bit depth                                : 8 bits
Scan type                                : Interlaced
Scan order                               : Top Field First
Bits/(Pixel*Frame)                       : 0.123
Stream size                              : 944 MiB (85%)
Audio #1
ID                                       : 4352 (0x1100)
Menu ID                                  : 1 (0x1)
Format                                   : AC-3
Format/Info                              : Audio Coding 3
Mode extension                           : CM (complete main)
Format settings, Endianness              : Big
Codec ID                                 : 129
Duration                                 : 20mn 40s
Bit rate mode                            : Constant
Bit rate                                 : 384 Kbps
Channel(s)                               : 6 channels
Channel positions                        : Front: L C R, Side: L R, LFE
Sampling rate                            : 48.0 KHz
Bit depth                                : 16 bits
Compression mode                         : Lossy
Stream size                              : 56.8 MiB (5%)
Language                                 : Russian
Audio #2
ID                                       : 4353 (0x1101)
Menu ID                                  : 1 (0x1)
Format                                   : AC-3
Format/Info                              : Audio Coding 3
Mode extension                           : CM (complete main)
Format settings, Endianness              : Big
Codec ID                                 : 129
Duration                                 : 20mn 40s
Bit rate mode                            : Constant
Bit rate                                 : 384 Kbps
Channel(s)                               : 6 channels
Channel positions                        : Front: L C R, Side: L R, LFE
Sampling rate                            : 48.0 KHz
Bit depth                                : 16 bits
Compression mode                         : Lossy
Stream size                              : 56.8 MiB (5%)
Language                                 : English

Скриншоты

[Цитировать]



Показать сообщения:    

Текущее время: 29-Мар 15:22

Часовой пояс: UTC + 6


Вы не можете начинать темы
Вы не можете отвечать на сообщения
Вы не можете редактировать свои сообщения
Вы не можете удалять свои сообщения
Вы не можете голосовать в опросах
Вы не можете прикреплять файлы к сообщениям
Вы не можете скачивать файлы

!ВНИМАНИЕ!
Сайт не предоставляет электронные версии произведений, а занимается лишь коллекционированием и каталогизацией ссылок, присылаемых и публикуемых на форуме нашими читателями. Если вы являетесь правообладателем какого-либо представленного материала и не желаете, чтобы ссылка на него находилась в нашем каталоге, свяжитесь с нами, и мы незамедлительно удалим ее. Файлы для обмена на трекере предоставлены пользователями сайта, и администрация не несет ответственности за их содержание. Просьба не заливать файлы, защищенные авторскими правами, а также файлы нелегального содержания!