[ Сегодня идет свободное скачивание без начисления Download ]


Статистика раздачи
Нет
 
   
 
Top  
 
 
Великолепная Венеция
Год выпуска: 2015
Страна: Россия
Жанр: Документальное кино
Продолжительность: 00:41:48
Перевод: Отсутствует
Русские субтитры: нет
Режиссер: КИВ
Описание:
Венеция – город на северо-востоке Италии, столица провинции Венето.
Венеция стоит на 118 небольших островах между материком и Адриатическим морем. Город пронизан 160 каналами, через которые перекинуты более 400 мостов.
Величественные и прекрасные дворцы образуют причудливый и таинственный мир,где отрешённое изящество готики соседствует с пышной роскошью барокко.
И почти повсюду слышен плеск воды, которая, омывая цоколи зданий, отражает архитектурные шедевры...

Это моя последняя здесь раздача..Смотрите на ютубе канал 3d video foto
Качество: HDTV
Видеопоток: MPEG-Video
Формат 3D: Anamorph SideBySide / Горизонтальная анаморфная стереопара
Порядок ракурсов: левый ракурс первый
Видео кодек: MPEG-PS
Аудио кодек: AC-3
Видео: MPEG-VIDEO 13,5 Мбит/сек, 1920х1080, 16:9, 25 кадров/сек. (PAL)
Аудио: AC-3 448 Кбит/сек, 48,0 Кгц,16 Бит, 6 Каналов.

Скриншоты

MediaInfo

General
Complete name : F:\Великолепная Венеция КИВ.mpg
Format : MPEG-PS
File size : 3.95 GiB
Duration : 41mn 48s
Overall bit rate mode : Variable
Overall bit rate : 13.5 Mbps
Video
ID : 224 (0xE0)
Format : MPEG Video
Format version : Version 2
Format profile : Main@High
Format settings, BVOP : No
Format settings, Matrix : Custom
Format settings, GOP : M=3, N=15
Duration : 41mn 48s
Bit rate mode : Variable
Bit rate : 12.8 Mbps
Maximum bit rate : 14.0 Mbps
Width : 1 920 pixels
Height : 1 080 pixels
Display aspect ratio : 16:9
Frame rate : 25.000 fps
Color space : YUV
Chroma subsampling : 4:2:0
Bit depth : 8 bits
Scan type : Interlaced
Scan order : Top Field First
Compression mode : Lossy
Bits/(Pixel*Frame) : 0.247
Time code of first frame : 00:00:00:00
Time code source : Group of pictures header
Stream size : 3.74 GiB (95%)
Audio
ID : 189 (0xBD)-128 (0x80)
Format : AC-3
Format/Info : Audio Coding 3
Mode extension : CM (complete main)
Format settings, Endianness : Big
Muxing mode : DVD-Video
Duration : 41mn 48s
Bit rate mode : Constant
Bit rate : 448 Kbps
Channel(s) : 6 channels
Channel positions : Front: L C R, Side: L R, LFE
Sampling rate : 48.0 KHz
Bit depth : 16 bits
Compression mode : Lossy
Stream size : 134 MiB (3%)

[Цитировать]



Показать сообщения:    

Текущее время: 10-Дек 17:45

Часовой пояс: UTC + 3


Вы не можете начинать темы
Вы не можете отвечать на сообщения
Вы не можете редактировать свои сообщения
Вы не можете удалять свои сообщения
Вы не можете голосовать в опросах
Вы не можете прикреплять файлы к сообщениям
Вы не можете скачивать файлы

!ВНИМАНИЕ!
Сайт не предоставляет электронные версии произведений, а занимается лишь коллекционированием и каталогизацией ссылок, присылаемых и публикуемых на форуме нашими читателями. Если вы являетесь правообладателем какого-либо представленного материала и не желаете, чтобы ссылка на него находилась в нашем каталоге, свяжитесь с нами, и мы незамедлительно удалим ее. Файлы для обмена на трекере предоставлены пользователями сайта, и администрация не несет ответственности за их содержание. Просьба не заливать файлы, защищенные авторскими правами, а также файлы нелегального содержания!