[ Сегодня идет свободное скачивание без начисления Download ]


Статистика раздачи
Нет
 
   
 
Top  
 
 
Меч-2 Год выпуска: 2015
Производитель : Россия, DixiMedia
Жанр: Детектив, криминал
Продолжительность: 45 мин.
Cубтитры: нет
Режиссер: Алексей Луканев
В ролях: Эдуард Флёров, Роман Курцын, Дарья Повереннова, Александр Фисенко, Нина Гогаева, Макс Туранцев, Виктория Фишер, Владислав Павлов, Максим Щёголев, Тимур Ефременков, Анна Шевченко, Артур Сопельник, Дмитрий Архангельский, Александр Лырчиков, Андрей Курилов, Владислав Шкляев, Анна Глазкова, Никита Абдулов, Александр Курицын, Евгений Смирнов-Иваницкий, Анатолий Завьялов, Михаил Инчин, Дмитрий Пищулин, Ирина Шабашева, Александр Логинов (III)
Описание: Максим Калинин (Эдуард Флёров) – капитан запаса, бывший сотрудник Управления по борьбе с организованной преступностью. Когда-то его подставили и выгнали из органов, а настоящего преступника оправдали. Тогда Калинин создал организацию «Меч». В криминальных сводках такие группы называют незаконными вооруженными формированиями. Но главная цель Макса и его соратников – борьба с преступниками, ушедшими от правосудия. Они ведут свою собственную охоту на наркоторговцев, педофилов, насильников и других представителей преступного мира. Помимо Макса в группу вошли Костя Орлов (Роман Курцын) – снайпер, бывший сослуживец Калинина, Дима Чижов (Влад Павлов) – инспектор патрульно-постовой службы, опытный юрист Ольга Степненко (Виктория Фишер) и врач команды Лена Журова (Дарья Повереннова), присоединившаяся к «мечам» после того, как бандиты убили ее мужа, сотрудника СОБРа. У каждого в команде свои обязанности и задачи, но все решения принимаются сообща. Уверенные в том, что в борьбе за справедливость все средства хороши, члены группы вершат самосуд, нередко жертвуя своими бойцами. Одна из операций оборачивается особо серьезным испытанием: Костя погибает, лидер «Меча» Макс получает тяжелое ранение. Постепенно приходя в себя после ранения, Калинин понимает, что ему придется собирать «Меч» заново. Но Макс уверен: пока он жив, его дело должно быть продолжено. К группе присоединяются новички, а вскоре «мечи» узнают, что Костя Орлов выжил. Но где он и как сложится его дальнейшая судьба, это еще предстоит выяснить товарищам. В новом составе группа вновь готова выйти на охоту. Новичкам предстоит доказать свою преданность общему делу, а уже хорошо знакомым героям – не раз пойти на компромисс с собственной совестью ради идеи справедливости. «Мечи» по-прежнему находятся на грани: с одной стороны, криминальный мир, который объявляет огромные деньги за их поимку, с другой – правоохранительные органы, которые разыскивают участников группы…
Сэмпл
Качество: HDTVRip
Формат: AVI
Видео кодек: XviD
Аудио кодек: AC3
Видео: 720x400 (1.80:1), 25 fps, XviD build 73 ~1548 kbps avg, 0.213 bit/pixel
Аудио: 48 kHz, AC3 Dolby Digital, 2/0 (L,R) ch, ~192.00 kbps avg

MI

Общее
Полное имя : D:\Vytas\Video\Mech-2.2015.HDTVRip.Files-x\Mech-2.Prolog.2015.HDTVRip.Files-x.avi
Формат : AVI
Формат/Информация : Audio Video Interleave
Размер файла : 301 Мбайт
Продолжительность : 22 м.
Общий поток : 1850 Кбит/сек
Программа кодирования : VirtualDubMod 1.5.10.3 | www.virtualdub-fr.org || (build 2550/release)
Библиотека кодирования : VirtualDubMod build 2550/release
Видео
Идентификатор : 0
Формат : MPEG-4 Visual
Профиль формата : Advanced [email protected]
Параметр BVOP формата : 1
Параметр QPel формата : Нет
Параметр GMC формата : Без точки перехода
Параметр матрицы формата : Выборочная
Идентификатор кодека : XVID
Идентификатор кодека/Подсказка : XviD
Продолжительность : 22 м.
Битрейт : 1648 Кбит/сек
Ширина : 720 пикселей
Высота : 400 пикселей
Соотношение сторон : 16:9
Частота кадров : 25,000 кадров/сек
Цветовое пространство : YUV
Субдискретизация насыщенности : 4:2:0
Битовая глубина : 8 бит
Тип развёртки : Прогрессивная
Метод сжатия : С потерями
Бит/(Пиксели*Кадры) : 0.229
Размер потока : 268 Мбайт (89%)
Библиотека кодирования : XviD 73
Аудио
Идентификатор : 1
Формат : AC-3
Формат/Информация : Audio Coding 3
Расширение режима : CM (complete main)
Параметр Endianness формата : Big
Идентификатор кодека : 2000
Продолжительность : 22 м.
Вид битрейта : Постоянный
Битрейт : 192 Кбит/сек
Каналы : 2 канала
Расположение каналов : Front: L R
Частота : 48,0 КГц
Битовая глубина : 16 бит
Метод сжатия : С потерями
Размер потока : 31,2 Мбайт (10%)
Выравнивание : Разделение по промежуткам
Продолжительность промежутка : 40 мс. (1,00 видеокадр)
Время предзагрузки промежутка : 500 мс.
General
Complete name : Y:\раздачи\Mech-2.2015.HDTVRip.Files-x\01.Mech-2..2015.HDTVRip.Files-x.avi
Format : AVI
Format/Info : Audio Video Interleave
File size : 550 MiB
Duration : 44mn 21s
Overall bit rate : 1 732 Kbps
Writing application : VirtualDubMod 1.5.10.3 | www.virtualdub-fr.org || (build 2550/release)
Writing library : VirtualDubMod build 2550/release
Video
ID : 0
Format : MPEG-4 Visual
Format profile : Advanced [email protected]
Format settings, BVOP : 1
Format settings, QPel : No
Format settings, GMC : No warppoints
Format settings, Matrix : Custom
Codec ID : XVID
Codec ID/Hint : XviD
Duration : 44mn 21s
Bit rate : 1 531 Kbps
Width : 720 pixels
Height : 400 pixels
Display aspect ratio : 16:9
Frame rate : 25.000 fps
Color space : YUV
Chroma subsampling : 4:2:0
Bit depth : 8 bits
Scan type : Progressive
Compression mode : Lossy
Bits/(Pixel*Frame) : 0.213
Stream size : 486 MiB (88%)
Writing library : XviD 73
Audio
ID : 1
Format : AC-3
Format/Info : Audio Coding 3
Mode extension : CM (complete main)
Format settings, Endianness : Big
Codec ID : 2000
Duration : 44mn 21s
Bit rate mode : Constant
Bit rate : 192 Kbps
Channel(s) : 2 channels
Channel positions : Front: L R
Sampling rate : 48.0 KHz
Bit depth : 16 bits
Compression mode : Lossy
Stream size : 60.9 MiB (11%)
Alignment : Split accross interleaves
Interleave, duration : 40 ms (1.00 video frame)
Interleave, preload duration : 500 ms

Внимание! Раздача ведётся путём добавления новых серий!

Внимание! Раздача ведётся путём добавления новых серий
Внимание! Раздача ведётся путём добавления новых серий; при каждом добавлении создётся новый торрент.
Чтобы начать докачку новой серии, пользователям необходимо сделать следующее:
1) остановить скачивание
2) удалить старый торрент у себя из клиента (старые серии удалять не надо)
3) скачать новый торрент и запустить его у себя в клиенте вместо старого, при этом указать клиенту путь в старую папку куда и должно происходить скачивание новых серий.
Ваш клиент при этом должен произвести хеширование (проверку) старой папки (если не производит сам - помогите ему сделать это), и будет докачивать только те серии которых у вас ещё нет. Старые серии при этом не удаляются, а продолжают раздаваться!
Eсли вы уже удалили старые серии, то предотвратить повторную закачку старых серий можно, отжав галочку в соответствовавших местах при запуске нового торрента.

Скриншоты

[Цитировать]



Показать сообщения:    

Текущее время: 06-Дек 17:13

Часовой пояс: UTC + 3


Вы не можете начинать темы
Вы не можете отвечать на сообщения
Вы не можете редактировать свои сообщения
Вы не можете удалять свои сообщения
Вы не можете голосовать в опросах
Вы не можете прикреплять файлы к сообщениям
Вы не можете скачивать файлы

!ВНИМАНИЕ!
Сайт не предоставляет электронные версии произведений, а занимается лишь коллекционированием и каталогизацией ссылок, присылаемых и публикуемых на форуме нашими читателями. Если вы являетесь правообладателем какого-либо представленного материала и не желаете, чтобы ссылка на него находилась в нашем каталоге, свяжитесь с нами, и мы незамедлительно удалим ее. Файлы для обмена на трекере предоставлены пользователями сайта, и администрация не несет ответственности за их содержание. Просьба не заливать файлы, защищенные авторскими правами, а также файлы нелегального содержания!