[ Сегодня идет свободное скачивание без начисления Download ]


Статистика раздачи
Нет
 
   
 
Top  
 
 
Выйти замуж за капитана
Информация о фильме
Название: Выйти замуж за капитана
Год выхода: 1985
Жанр: Мелодрама, комедия
Режиссер: Виталий Мельников
В ролях: Вера Глаголева, Виктор Проскурин, Вера Васильева, Николай Рыбников, Юрий Демич, Светлана Крючкова, Фёдор Одиноков, Татьяна Рудина, Валентина Березуцкая, Никита Михайловский
О фильме: Капитану-пограничнику Александру Блинову уже за тридцать. Немногословный и крайне принципиальный, он не склонен к легкому флирту и мечтает о большой и чистой любви. Отпуск дает ему такой шанс: ему нужно завезти посылку некой Елене, живущей в городе, недалеко от его родной деревни. Так Блинов знакомится с ней: фотокорреспонденткой, несколько безрассудной и беззащитной. Капитан волею обстоятельств вынужден сопровождать Елену в её журналистских заданиях, пытаясь попутно «воспитывать» легкомысленную журналистку… После ссоры, возникшей во время одного из Лениных заданий (репортаж о гниющих в колхозе яблоках, которые скармливают свиньям вместо того, чтобы везти в магазины), Блинов делает Елене признание и уходит. Блинов возвращается к месту своей службы, решая порвать все связи с Еленой. Через некоторое время Елена прилетает к нему, якобы выполняя журналистское задание, но на самом деле имея целью помириться с ним, и это ей удается — они помирились и она счастливая улетает домой.

Страна: СССР
Продолжительность: 01:25:04
Перевод: не требуется
Файл
Кодек: MKV
Качество: DVDRip-AVC
Видео: MPEG-4 AVC, 2390 Кбит/с, [email protected]
Звук: AC3, 2 ch, 192 Кбит/с

Медиа-Инфо

raw [info]: 720x558p 16:15 @ 25/1 fps (cfr)
x264 [info]: using SAR=16/15
x264 [info]: using cpu capabilities: MMX2 SSE2Fast SSSE3 SSE4.2 AVX
x264 [info]: profile High, level 4.1
x264 [info]: frame I:596 Avg QP:16.74 size: 74532
x264 [info]: frame P:28158 Avg QP:20.35 size: 28990
x264 [info]: frame B:98857 Avg QP:21.97 size: 6720
============================================================================================================
Общее
Уникальный идентификатор : 182987465217057223312043869232706197125 (0x89AA1A97489B3D3EB192751C60459685)
Полное имя : D:Выйти замуж за капитана_1985-DVDRip-AVC.mkv
Формат : Matroska
Версия формата : Version 2
Размер файла : 1,54 Гбайт
Продолжительность : 1 ч. 25 м.
Общий поток : 2584 Кбит/сек
Дата кодирования : UTC 2015-09-07 11:20:55
Программа кодирования : mkvmerge v5.8.0 ('No Sleep / Pillow') built on Sep 2 2012 15:37:04
Библиотека кодирования : libebml v1.2.3 + libmatroska v1.3.0
Видео
Идентификатор : 1
Формат : AVC
Формат/Информация : Advanced Video Codec
Профиль формата : [email protected]
Параметр CABAC формата : Да
Параметр ReFrames формата : 14 кадров
Идентификатор кодека : V_MPEG4/ISO/AVC
Продолжительность : 1 ч. 25 м.
Битрейт : 2390 Кбит/сек
Ширина : 720 пикселей
Высота : 558 пикселей
Соотношение сторон : 1,376
Режим частоты кадров : Постоянный
Частота кадров : 25,000 кадров/сек
Цветовое пространство : YUV
Субдискретизация насыщенности : 4:2:0
Битовая глубина : 8 бит
Тип развёртки : Прогрессивная
Бит/(Пиксели*Кадры) : 0.238
Размер потока : 1,39 Гбайт (91%)
Библиотека кодирования : x264 core 146 r2538 121396c
Настройки программы : cabac=1 / ref=14 / deblock=1:-2:-2 / analyse=0x3:0x133 / me=umh / subme=10 / psy=1 / psy_rd=0.95:0.05 / mixed_ref=1 / me_range=32 / chroma_me=1 / trellis=2 / 8x8dct=1 / cqm=0 / deadzone=21,11 / fast_pskip=0 / chroma_qp_offset=-3 / threads=12 / lookahead_threads=3 / sliced_threads=0 / nr=0 / decimate=0 / interlaced=0 / bluray_compat=0 / constrained_intra=0 / bframes=11 / b_pyramid=2 / b_adapt=2 / b_bias=0 / direct=3 / weightb=1 / open_gop=0 / weightp=2 / keyint=250 / keyint_min=25 / scenecut=40 / intra_refresh=0 / rc=2pass / mbtree=0 / bitrate=2390 / ratetol=1.0 / qcomp=0.65 / qpmin=0 / qpmax=45 / qpstep=4 / cplxblur=20.0 / qblur=0.5 / ip_ratio=1.40 / pb_ratio=1.30 / aq=1:0.90
Язык : English
Default : Да
Forced : Нет
Основные цвета : BT.601 PAL
Характеристики трансфера : BT.470 System B, BT.470 System G
Коэффициенты матрицы : BT.601
Аудио
Идентификатор : 2
Формат : AC-3
Формат/Информация : Audio Coding 3
Расширение режима : CM (complete main)
Параметр Endianness формата : Big
Идентификатор кодека : A_AC3
Продолжительность : 1 ч. 25 м.
Вид битрейта : Постоянный
Битрейт : 192 Кбит/сек
Каналы : 2 канала
Расположение каналов : Front: L R
Частота : 48,0 КГц
Битовая глубина : 16 бит
Метод сжатия : С потерями
Размер потока : 117 Мбайт (7%)
Язык : Russian
Default : Да
Forced

[Цитировать]



Показать сообщения:    

Текущее время: 06-Дек 22:57

Часовой пояс: UTC + 3


Вы не можете начинать темы
Вы не можете отвечать на сообщения
Вы не можете редактировать свои сообщения
Вы не можете удалять свои сообщения
Вы не можете голосовать в опросах
Вы не можете прикреплять файлы к сообщениям
Вы не можете скачивать файлы

!ВНИМАНИЕ!
Сайт не предоставляет электронные версии произведений, а занимается лишь коллекционированием и каталогизацией ссылок, присылаемых и публикуемых на форуме нашими читателями. Если вы являетесь правообладателем какого-либо представленного материала и не желаете, чтобы ссылка на него находилась в нашем каталоге, свяжитесь с нами, и мы незамедлительно удалим ее. Файлы для обмена на трекере предоставлены пользователями сайта, и администрация не несет ответственности за их содержание. Просьба не заливать файлы, защищенные авторскими правами, а также файлы нелегального содержания!