[ Сегодня идет свободное скачивание без начисления Download ]


Статистика раздачи
Нет
 
   
 
Top  
 
 
Одинокий рейнджер / The Lone Ranger
Страна: США
Жанр: вестерн, приключения, боевик, комедия
Год выпуска: 2013
Продолжительность: 02:29:33
Перевод: Профессиональный (дублированный)
Cубтитры: русские (rus.srt, rus forced.srt - на две фразы индейцев) отдельно вложенные
Оригинальная аудиодорожка: английский
Режиссер: Гор Вербински / Gore Verbinski
В ролях: Джонни Депп, Арми Хаммер,
Том Уилкинсон, Уильям Фихтнер, Рут Уилсон,
Барри Пеппер, Хелена Бонем Картер,
Брайант Принц, Стивен Рут, Леон Риппи и др.
Описание: История блюстителя закона Джона Рида, который с помощью индейца Тонто
стал легендарным мстителем в маске, стоящим на защите справедливости. Тонто с юмором
и небылицами повествует о тех приключениях, которые пришлось пережить двум непохожим
друг на друга героям, сведённым судьбой для того, чтобы вместе сражаться против общего
врага. Им приходится противостоять жадности и коррупции во времена, когда появление первых
железных дорог изменило представление о власти и могуществе в мире...
Качество видео: BDRip (Blu-ray EUR 1080p DGEKIGAN+HDclub)
Формат видео: AVI
Vidео: XviD MPEG-4, 720x304, 2.35:1, 23.976 fps, ~1704 kbps avg, 0.325 bit/pixel
Аudiо #1: Russian AC-3 Dolby Digital, CBR 448 kbps 6 ch, Front: L C R, Side: L R, LFE, 48.0 KHz
Аudiо #2: English AC-3 Dolby Digital, CBR 448 kbps 6 ch, Front: L C R, Side: L R, LFE, 48.0 KHz

MediaInfo

ОбщееПолное имя : P:\The_Lone_Ranger_2013_BDRip_[rutracker.org]\The_Lone_Ranger_2013_BDRip.aviФормат : AVIФормат/Информация : Audio Video InterleaveПрофиль формата : OpenDMLРазмер файла : 2,73 ГбайтПродолжительность : 2 ч. 29 м.Общий поток : 2616 Кбит/секПрограмма кодирования : VirtualDubMod 1.5.10.2 (build 2540/release)Библиотека кодирования : VirtualDubMod build 2540/release
ВидеоИдентификатор : 0Формат : MPEG-4 VisualПрофиль формата : Advanced Simple@L5Параметр BVOP формата : 2Параметр QPel формата : НетПараметр GMC формата : Без точки переходаПараметр матрицы формата : ВыборочнаяИдентификатор кодека : XVIDИдентификатор кодека/Подсказка : XviDПродолжительность : 2 ч. 29 м.Битрейт : 1704 Кбит/секШирина : 720 пикселейВысота : 304 пикселяСоотношение сторон : 2,35:1Частота кадров : 23,976 кадра/секЦветовое пространство : YUVСубдискретизация насыщенности : 4:2:0Битовая глубина : 8 битТип развёртки : ПрогрессивнаяМетод сжатия : С потерямиБит/(Пиксели*Кадры) : 0.325Размер потока : 1,78 Гбайт (65%)Библиотека кодирования : XviD 1.2.1 (UTC 2008-12-04)
Аудио #1Идентификатор : 1Формат : AC-3Формат/Информация : Audio Coding 3Расширение режима : CM (complete main)Параметр Endianness формата : BigИдентификатор кодека : 2000Продолжительность : 2 ч. 29 м.Вид битрейта : ПостоянныйБитрейт : 448 Кбит/секКаналы : 6 каналовРасположение каналов : Front: L C R, Side: L R, LFEЧастота : 48,0 КГцБитовая глубина : 16 битМетод сжатия : С потерямиРазмер потока : 479 Мбайт (17%)Выравнивание : Разделение по промежуткамПродолжительность промежутка : 42 мс. (1,00 видеокадр)Время предзагрузки промежутка : 500 мс.
Аудио #2Идентификатор : 2Формат : AC-3Формат/Информация : Audio Coding 3Расширение режима : CM (complete main)Параметр Endianness формата : BigИдентификатор кодека : 2000Продолжительность : 2 ч. 29 м.Вид битрейта : ПостоянныйБитрейт : 448 Кбит/секКаналы : 6 каналовРасположение каналов : Front: L C R, Side: L R, LFEЧастота : 48,0 КГцБитовая глубина : 16 битМетод сжатия : С потерямиРазмер потока : 479 Мбайт (17%)Выравнивание : Разделение по промежуткамПродолжительность промежутка : 42 мс. (1,00 видеокадр)Время предзагрузки промежутка : 500 мс.
ОбщееПолное имя : P:\The_Lone_Ranger_2013_BDRip_[rutracker.org]\The_Lone_Ranger_2013_BDRip.rus forced.srtФормат : SubRipРазмер файла : 153 байт
ТекстФормат : SubRipМетод сжатия : Без потерь
ОбщееПолное имя : P:\The_Lone_Ranger_2013_BDRip_[rutracker.org]\The_Lone_Ranger_2013_BDRip.rus.srtФормат : SubRipРазмер файла : 115 Кбайт
ТекстФормат : SubRipМетод сжатия : Без потерь

Скриншот c названием фильма

Скриншоты



Время раздачи - по возможности.

[Цитировать]



Показать сообщения:    

Текущее время: 08-Дек 09:00

Часовой пояс: UTC + 3


Вы не можете начинать темы
Вы не можете отвечать на сообщения
Вы не можете редактировать свои сообщения
Вы не можете удалять свои сообщения
Вы не можете голосовать в опросах
Вы не можете прикреплять файлы к сообщениям
Вы не можете скачивать файлы

!ВНИМАНИЕ!
Сайт не предоставляет электронные версии произведений, а занимается лишь коллекционированием и каталогизацией ссылок, присылаемых и публикуемых на форуме нашими читателями. Если вы являетесь правообладателем какого-либо представленного материала и не желаете, чтобы ссылка на него находилась в нашем каталоге, свяжитесь с нами, и мы незамедлительно удалим ее. Файлы для обмена на трекере предоставлены пользователями сайта, и администрация не несет ответственности за их содержание. Просьба не заливать файлы, защищенные авторскими правами, а также файлы нелегального содержания!