[ Сегодня идет свободное скачивание без начисления Download ]


Статистика раздачи
Нет
 
   
 
Top  
 
 
Парк Куриного Периода / Chicken Park
Страна: Италия
Жанр: Комедия
Год выпуска: 1994
Продолжительность: 01:36:14
Перевод: Авторский (одноголосый закадровый) Михаил Иванов
Cубтитры: нет
Режиссер: Джерри Кала/ Jerry Cala
В ролях: Джерри Кала, Деметра Хэмптон, Джефф Блинн,Симона Каноза, Джоэнна Чаттон, Массимо Чипрари, Antonio Covatta, Алессия Маркуцци, Лоуренс Стивен Мейерс
Описание: Бизнес Корсетти по разведению кур идет с успехом. Его курятники процветают, несушки под приятную классическую музыку увеличивают продуктивность. Однажды ночью конкуренты заменили кассеты тяжелым роком.
В курятнике сейчас настоящий ад. Секс, наркотики и рок-н-ролл приносят страшные плоды. Разоренный Корсетти пытается спасти свой бизнес. Он отправляется на остров Тухлого Яйца, где расположен парк Куриного Периода, и, разумеется, в нем водятся гигантские куры…
Сэмпл: http://multi-up.com/1065512
Качество видео: VHSRip
Формат видео: AVI
Видео: 720x576 (1.25:1), 25 fps, XviD build 50 ~2006 kbps avg, 0.19 bit/pixel
Аудио: 44.100 kHz, MPEG Layer 3, 1 ch, ~128.00 kbps avg

MediaInfo

Общее
Полное имя : D:\Torrent\Chicken Park (1994, VHSRip) .avi
Формат : AVI
Формат/Информация : Audio Video Interleave
Профиль формата : OpenDML
Размер файла : 1,44 Гбайт
Продолжительность : 1 ч. 36 м.
Общий поток : 2141 Кбит/сек
Программа кодирования : MEncoder SVN-r33883(20110719-gcc4.5.2)
Библиотека кодирования : MPlayer
Видео
Идентификатор : 0
Формат : MPEG-4 Visual
Профиль формата : Advanced Simple@L5
Параметр BVOP формата : 2
Параметр QPel формата : Нет
Параметр GMC формата : Без точки перехода
Параметр матрицы формата : Default (H.263)
Идентификатор кодека : XVID
Идентификатор кодека/Подсказка : XviD
Продолжительность : 1 ч. 36 м.
Битрейт : 2000 Кбит/сек
Ширина : 720 пикселей
Высота : 576 пикселей
Соотношение сторон : 5:4
Частота кадров : 25,000 кадров/сек
Стандарт вещания : PAL
Цветовое пространство : YUV
Субдискретизация насыщенности : 4:2:0
Битовая глубина : 8 бит
Тип развёртки : Прогрессивная
Метод сжатия : С потерями
Бит/(Пиксели*Кадры) : 0.193
Размер потока : 1,34 Гбайт (93%)
Библиотека кодирования : XviD 1.2.1 (UTC 2008-12-04)
Аудио
Идентификатор : 1
Формат : MPEG Audio
Версия формата : Version 1
Профиль формата : Layer 3
Идентификатор кодека : 55
Идентификатор кодека/Подсказка : MP3
Продолжительность : 1 ч. 36 м.
Вид битрейта : Постоянный
Битрейт : 128 Кбит/сек
Каналы : 1 канал
Частота : 44,1 КГц
Метод сжатия : С потерями
Задержка видео : 40 мс.
Размер потока : 88,1 Мбайт (6%)
Выравнивание : Соединение по промежуткам
Продолжительность промежутка : 26 мс. (0,65 видеокадр)
Время предзагрузки промежутка : 522 мс.

Скриншот c названием фильма

Скриншоты

Полноразмерная обложка кассеты

[Цитировать]



Показать сообщения:    

Текущее время: 11-Дек 03:17

Часовой пояс: UTC + 3


Вы не можете начинать темы
Вы не можете отвечать на сообщения
Вы не можете редактировать свои сообщения
Вы не можете удалять свои сообщения
Вы не можете голосовать в опросах
Вы не можете прикреплять файлы к сообщениям
Вы не можете скачивать файлы

!ВНИМАНИЕ!
Сайт не предоставляет электронные версии произведений, а занимается лишь коллекционированием и каталогизацией ссылок, присылаемых и публикуемых на форуме нашими читателями. Если вы являетесь правообладателем какого-либо представленного материала и не желаете, чтобы ссылка на него находилась в нашем каталоге, свяжитесь с нами, и мы незамедлительно удалим ее. Файлы для обмена на трекере предоставлены пользователями сайта, и администрация не несет ответственности за их содержание. Просьба не заливать файлы, защищенные авторскими правами, а также файлы нелегального содержания!