[ Сегодня идет свободное скачивание без начисления Download ]


Статистика раздачи
Нет
 
   
 
Top  
 
 
-- Информация о фильме
Название: Вымирание
Оригинальное название: Extinction
Год выхода: 2015
Жанр: ужасы, фантастика, драма
Режиссер: Мигель Анхель Вивас
В ролях: Мэттью Фокс, Джеффри Донован, Куинн Маккоулган, Валерия Веро, Клара Лаго, Мэтт Девере, Алекс Хафнер, Джереми Вилер
О фильме:
После нескольких сотен тысяч лет эволюции и превосходства, люди были почти уничтожены с лица Земли. В течение всего лишь нескольких дней инфекция превратила их в диких существ без интеллекта, они стали злыми и безжалостными. Через семь лет после этого, мы находим небольшой городок — Harmony, покрытый многолетними снегами. Двое мужчин, давние друзья Патрик и Джек, и дочь Джека, Лу, — единственные оставшиеся в живых. Тем не менее, они не общаются или даже не признают друг друга. Что-то ужасное произошло между ними и глубокая неумолимая ненависть прекратила их дружбу давным-давно.

Выпущено: Испания, Франция, США, Венгрия / La Ferme! Productions, Laokoon Filmgroup, Ombra Films, Telefonica Studios, Vaca Films
Продолжительность: 01:52:44
Озвучивание: Профессиональное (многоголосое) [iTunes]
Файл
Формат: MKV
Качество: WEB-DLRip-AVC
Видео: ~1450 kb/s, 1020x424
Аудио: AC3, 384 kb/s (6 ch)
Субтитры: Нет--

M/I

General
Unique ID : 241817778361918407031292014647468340066 (0xB5EC68F89807F2FA551DDBFF870BB362)
Complete name : D:Вымирание.(2015. WEB-DLRIP_AVC.[-=DoMiNo=-].mkv
Format : Matroska
Format version : Version 4 / Version 2
File size : 1.45 GiB
Duration : 1h 52mn
Overall bit rate : 1 844 Kbps
Movie name : Вымирание
Writing application : XviD4PSP 7.0.170
Writing library : Lavf56.25.101
ORIGINAL_TITLE : Extinction
DATE : 2015
GENRE : ужасы, фантастика, драма
ENCODING_INFO : MATROSKA,WEBM > MKV / H264 > X264 VBR-2P 1458kbps Custom / AC3 > COPY
SYNOPSIS : После нескольких сотен тысяч лет эволюции и превосходства, люди были почти уничтожены с лица Земли. В течение всего лишь нескольких дней инфекция превратила их в диких существ без интеллекта, они стали злыми и безжалостными. Через семь лет после этого, мы находим небольшой городок — Harmony, покрытый многолетними снегами. Двое мужчин, давние друзья Патрик и Джек, и дочь Джека, Лу, — единственные оставшиеся в живых. Тем не менее, они не общаются или даже не признают друг друга. Что-то ужасное произошло между ними и глубокая неумолимая ненависть прекратила их дружбу давным-давно.
ITUNEXTC : mpaa|R|400|
ACTORS : Мэттью Фокс, Джеффри Донован, Куинн Маккоулган, Валерия Веро, Клара Лаго, Eduardo Fedriani, Мэтт Девере, Алекс Хафнер, Джереми Вилер, Katharine Bubbear, показать всех
DIRECTOR : Мигель Анхель Вивас
PRODUCER : Хауме Кольет-Серра, Ignacio Fernández-Veiga Feijóo, Брэд Лафф
WRITER : Альберто Марини, Мигель Анхель Вивас, Хуан де Диос Гардуньо
COUNTRY : Испания, Франция, США, Венгрия
RATING : 5.625
IMDB_RATING : 5.90
Language : und
FILENAME : cover.png
Attachements : cover.png
Video
ID : 1
Format : AVC
Format/Info : Advanced Video Codec
Format profile : High@L4.1
Format settings, CABAC : Yes
Format settings, ReFrames : 12 frames
Codec ID : V_MPEG4/ISO/AVC
Duration : 1h 52mn
Bit rate : 1 458 Kbps
Width : 1 020 pixels
Height : 424 pixels
Display aspect ratio : 2.40:1
Frame rate mode : Constant
Frame rate : 23.976 fps
Color space : YUV
Chroma subsampling : 4:2:0
Bit depth : 8 bits
Scan type : Progressive
Bits/(Pixel*Frame) : 0.141
Stream size : 1.12 GiB (77%)
Writing library : x264 core 148 r2597M e86f3a1
Encoding settings : cabac=1 / ref=12 / deblock=1:-3:-3 / analyse=0x3:0x133 / me=umh / subme=11 / psy=1 / psy_rd=1.00:0.10 / mixed_ref=1 / me_range=24 / chroma_me=1 / trellis=2 / 8x8dct=1 / cqm=0 / deadzone=21,11 / fast_pskip=0 / chroma_qp_offset=-3 / threads=5 / lookahead_threads=1 / sliced_threads=0 / nr=0 / decimate=1 / interlaced=0 / bluray_compat=0 / constrained_intra=0 / bframes=11 / b_pyramid=2 / b_adapt=2 / b_bias=0 / direct=3 / weightb=1 / open_gop=0 / weightp=2 / keyint=230 / keyint_min=23 / scenecut=40 / intra_refresh=0 / rc=2pass / mbtree=0 / bitrate=1458 / ratetol=1.0 / qcomp=0.60 / qpmin=0 / qpmax=69 / qpstep=4 / cplxblur=20.0 / qblur=0.5 / ip_ratio=1.40 / pb_ratio=1.30 / aq=1:1.00
Language : English
Default : Yes
Forced : No
Color range : Limited
Color primaries : BT.709
Transfer characteristics : BT.709
Matrix coefficients : BT.709
Audio
ID : 2
Format : AC-3
Format/Info : Audio Coding 3
Mode extension : CM (complete main)
Format settings, Endianness : Big
Codec ID : A_AC3
Duration : 1h 52mn
Bit rate mode : Constant
Bit rate : 384 Kbps
Channel(s) : 6 channels
Channel positions : Front: L C R, Side: L R, LFE
Sampling rate : 48.0 KHz
Bit depth : 32 bits
Compression mode : Lossy
Stream size : 310 MiB (21%)
Language : Russian
Default : Yes
Forced : No
Menu
00:00:00.000 : :1
00:09:59.000 : :2
00:15:43.000 : :3
00:21:53.000 : :4
00:27:33.000 : :5
00:32:57.000 : :6
00:38:44.000 : :7
00:44:31.000 : :8
00:49:41.000 : :9
00:56:19.000 : :10
01:03:04.000 : :11
01:09:58.000 : :12
01:17:03.000 : :13
01:25:41.000 : :14
01:35:25.000 : :15
01:44:46.000 : :16
--

Скриншоты

--

[Цитировать]

Топик был перенесен из форума Новинки кинопроката в форум Ужасы
Henkok



Показать сообщения:    

Текущее время: 10-Дек 00:22

Часовой пояс: UTC + 3


Вы не можете начинать темы
Вы не можете отвечать на сообщения
Вы не можете редактировать свои сообщения
Вы не можете удалять свои сообщения
Вы не можете голосовать в опросах
Вы не можете прикреплять файлы к сообщениям
Вы не можете скачивать файлы

!ВНИМАНИЕ!
Сайт не предоставляет электронные версии произведений, а занимается лишь коллекционированием и каталогизацией ссылок, присылаемых и публикуемых на форуме нашими читателями. Если вы являетесь правообладателем какого-либо представленного материала и не желаете, чтобы ссылка на него находилась в нашем каталоге, свяжитесь с нами, и мы незамедлительно удалим ее. Файлы для обмена на трекере предоставлены пользователями сайта, и администрация не несет ответственности за их содержание. Просьба не заливать файлы, защищенные авторскими правами, а также файлы нелегального содержания!