[ Сегодня идет свободное скачивание без начисления Download ]


Статистика раздачи
Нет
 
   
 
Top  
 
 
Информация о фильме
Название: Россия молодая
Год выхода: 1982
Жанр: Исторический, экранизация
Режиссер: Илья Гурин
В ролях: Борис Невзоров, Александр Фатюшин, Степан Старчиков, Александра Яковлева, Дмитрий Золотухин, Николай Иванов (I), Иван Лапиков, Александр Борисов, Татьяна Кондырева, Сергей Плотников (I), Николай Олялин, Евдокия Алексеева, Александр Макарцев, Сергей Паршин, Александр Вдовин, Владислав Ракитянский, Владимир Кашпур, Анатолий Баранцев, Елена Глебова, Михаил Кузнецов, Владислав Стржельчик, Юрий Демич, Борис Иванов, Тыну Аав, Николай Крюков (II), Олег Борисов, Всеволод Кузнецов, Алексей Миронов, Сергей Сазонтьев, Райво Трасс, Георгий Назаренко, Леонид Харитонов, Вадим Вильский, Михаил Долгинин, Леон Кукулян, Евгений Марков, Рейно Арен, Геннадий Фролов, Бруно Фрейндлих
О фильме: отом и кровью достаётся молодому царю Петру строительство новой России. "Окно в Европу" прорубается на русском Севере, и здесь кипит жизнь, полная опасных приключений. Суровое время, сильные люди, подвиги во славу Отечества, грохот сражений и неподдельные чувства воссоздают подлинную картину становления Русского морского флота на рубеже XVIII века. Шел 1689 год, царю Петру Первому было 17 лет. Он увлекся корабельным делом: на озере под Переславлем-Залесским при помощи голландских инженеров-корабельщиков Петр строит верфи и корабли. Но все чаще и чаще слышит он рассказы о славных русских мастерах, живущих на берегу Белого моря в Архангельске... "Была та смутная пора, когда Россия молодая, в бореньях силы напрягая, мужала с гением Петра. Переступив судеб удары, окрепла Русь." (А.С. Пушкин) По одноименному роману Юрия Германа.
Страна: СССР, Киностудия им. М. Горького
Продолжительность: 9 x ~ 01:09:00
Перевод: не требуется
Файл
Кодек: MKV
Качество: DVDRip-AVC
Видео: MPEG-4 AVC, ~ 2050 Кбит/с, 718x572@766x572
Звук: AC3, 6 ch, 384 Кбит/с

Медиа-Инфо

Общее
Уникальный идентификатор : 181388069708909379729224057413717870852 (0x8876124DDEAAF1ECAA926E61A9964904)
Полное имя : R:МОИ РИПЫРоссия молодая_1982-DVDRip-AVCРоссия молодая-1.mkv
Формат : Matroska
Версия формата : Version 2
Размер файла : 1,13 Гбайт
Продолжительность : 1 ч. 6 м.
Общий поток : 2436 Кбит/сек
Дата кодирования : UTC 2015-01-12 16:47:21
Программа кодирования : mkvmerge v5.2.1 ('A Far Off Place') built on Jan 31 2012 17:07:03
Библиотека кодирования : libebml v1.2.3 + libmatroska v1.3.0
Видео
Идентификатор : 1
Формат : AVC
Формат/Информация : Advanced Video Codec
Профиль формата : High@L4.1
Параметр CABAC формата : Да
Параметр ReFrames формата : 14 кадров
Идентификатор кодека : V_MPEG4/ISO/AVC
Продолжительность : 1 ч. 6 м.
Битрейт : 2050 Кбит/сек
Ширина : 718 пикселей
Высота : 572 пикселя
Соотношение сторон : 4:3
Режим частоты кадров : Постоянный
Частота кадров : 25,000 кадров/сек
Цветовое пространство : YUV
Субдискретизация насыщенности : 4:2:0
Битовая глубина : 8 бит
Тип развёртки : Прогрессивная
Бит/(Пиксели*Кадры) : 0.200
Размер потока : 953 Мбайт (82%)
Библиотека кодирования : x264 core 130 r2273 b3065e6
Настройки программы : cabac=1 / ref=14 / deblock=1:-2:-2 / analyse=0x3:0x133 / me=umh / subme=10 / psy=1 / psy_rd=1.05:0.15 / mixed_ref=1 / me_range=24 / chroma_me=1 / trellis=2 / 8x8dct=1 / cqm=0 / deadzone=21,11 / fast_pskip=0 / chroma_qp_offset=-3 / threads=12 / lookahead_threads=3 / sliced_threads=0 / nr=0 / decimate=0 / interlaced=0 / bluray_compat=0 / constrained_intra=0 / bframes=10 / b_pyramid=2 / b_adapt=2 / b_bias=0 / direct=1 / weightb=1 / open_gop=0 / weightp=2 / keyint=250 / keyint_min=25 / scenecut=40 / intra_refresh=0 / rc=2pass / mbtree=0 / bitrate=2050 / ratetol=1.0 / qcomp=0.60 / qpmin=0 / qpmax=39 / qpstep=4 / cplxblur=20.0 / qblur=0.5 / ip_ratio=1.40 / pb_ratio=1.30 / aq=1:1.00
Язык : English
Default : Да
Forced : Нет
Основные цвета : BT.601 PAL
Характеристики трансфера : BT.470 System B, BT.470 System G
Коэффициенты матрицы : BT.601
Аудио
Идентификатор : 2
Формат : AC-3
Формат/Информация : Audio Coding 3
Расширение режима : CM (complete main)
Параметр Endianness формата : Big
Идентификатор кодека : A_AC3
Продолжительность : 1 ч. 6 м.
Вид битрейта : Постоянный
Битрейт : 384 Кбит/сек
Каналы : 6 каналов
Расположение каналов : Front: L C R, Side: L R, LFE
Частота : 48,0 КГц
Битовая глубина : 16 бит
Метод сжатия : С потерями
Размер потока : 183 Мбайт (16%)
Язык : Russian
Default : Да
Forced : Нет

[Цитировать]



Показать сообщения:    

Текущее время: 10-Дек 13:51

Часовой пояс: UTC + 3


Вы не можете начинать темы
Вы не можете отвечать на сообщения
Вы не можете редактировать свои сообщения
Вы не можете удалять свои сообщения
Вы не можете голосовать в опросах
Вы не можете прикреплять файлы к сообщениям
Вы не можете скачивать файлы

!ВНИМАНИЕ!
Сайт не предоставляет электронные версии произведений, а занимается лишь коллекционированием и каталогизацией ссылок, присылаемых и публикуемых на форуме нашими читателями. Если вы являетесь правообладателем какого-либо представленного материала и не желаете, чтобы ссылка на него находилась в нашем каталоге, свяжитесь с нами, и мы незамедлительно удалим ее. Файлы для обмена на трекере предоставлены пользователями сайта, и администрация не несет ответственности за их содержание. Просьба не заливать файлы, защищенные авторскими правами, а также файлы нелегального содержания!