[ Сегодня идет свободное скачивание без начисления Download ]


Статистика раздачи
Нет
 
   
 
Top  
 
 
Летнее безумие / Frenesia dell'estate
Страна: Италия, Франция
Жанр: Комедия
Год выпуска: 1964
Продолжительность: 01:45:08
Перевод: Одноголосый закадровый Urasiko
Cубтитры: нет
Оригинальная аудиодорожка: Итальянский
Режиссер: Луиджи Дзампа / Luigi Zampa
В ролях: Витторио Гассман, Сандра Мило, Мишель Мерсье, Амедео Надзари, Филипп Леруа, Габриэлла Джорджелли, Грациэлла Гальвани, Витторио Конжиа, Ливио Лоренцон, Джампьеро Литтера, Умберто Д’Орси
Описание: Эпизоды жизни на пляже в Версилии. Офицер попадает в двусмысленное положение из-за любимой. Зрелый, но достаточно красивый, мужчина, чтобы получить деньги от дамы в бальзаковском возрасте, влюбляется в Лолиту, которая приводит его к пониманию, что надо смириться с горькой действительностью его существования и его возраста. Красавица продает конфеты и сладости. Двое друзей заняты воздушной рекламой...
Доп. информация: Релиз
Перевод с итальянского и озвучивание Urasiko
Альтернативная раздачв с другим переводом
Сэмпл: http://multi-up.com/1065576
Качество видео: DVDRip
Формат видео: AVI
Видео: XviD MPEG-4, 640x352 (1.82:1), 25 fps, 1566 kbps avg, 0.28 bit/pixe
Аудио: Русская: MPEG Layer 3, 48 kHz, 2 ch, 128.00 kbps avg
Аудио 2: Итальянская: MPEG Layer 3, 48 kHz, 2 ch, 128.00 kbps avg

MediaInfo

General
Complete name : F:\Frenesia dell estate\Frenesia dellestate Ru.avi
Format : AVI
Format/Info : Audio Video Interleave
File size : 1.35 GiB
Duration : 1h 45mn
Overall bit rate : 1 837 Kbps
Writing application : VirtualDubMod 1.5.10.2 (build 2540/release)
Writing library : VirtualDubMod build 2540/release
Video
ID : 0
Format : MPEG-4 Visual
Format profile : Advanced [email protected]
Format settings, BVOP : 1
Format settings, QPel : No
Format settings, GMC : No warppoints
Format settings, Matrix : Custom
Codec ID : XVID
Codec ID/Hint : XviD
Duration : 1h 45mn
Bit rate : 1 567 Kbps
Width : 640 pixels
Height : 352 pixels
Display aspect ratio : 16:9
Frame rate : 25.000 fps
Color space : YUV
Chroma subsampling : 4:2:0
Bit depth : 8 bits
Scan type : Progressive
Compression mode : Lossy
Bits/(Pixel*Frame) : 0.278
Stream size : 1.15 GiB (85%)
Writing library : XviD 64
Audio #1
ID : 1
Format : MPEG Audio
Format version : Version 1
Format profile : Layer 3
Mode : Joint stereo
Mode extension : MS Stereo
Codec ID : 55
Codec ID/Hint : MP3
Duration : 1h 45mn
Bit rate mode : Constant
Bit rate : 128 Kbps
Channel(s) : 2 channels
Sampling rate : 48.0 KHz
Compression mode : Lossy
Stream size : 96.3 MiB (7%)
Alignment : Split accross interleaves
Interleave, duration : 40 ms (1.00 video frame)
Interleave, preload duration : 500 ms
Audio #2
ID : 2
Format : MPEG Audio
Format version : Version 1
Format profile : Layer 3
Mode : Joint stereo
Mode extension : MS Stereo
Codec ID : 55
Codec ID/Hint : MP3
Duration : 1h 45mn
Bit rate mode : Constant
Bit rate : 128 Kbps
Channel(s) : 2 channels
Sampling rate : 48.0 KHz
Compression mode : Lossy
Stream size : 96.3 MiB (7%)
Alignment : Split accross interleaves
Interleave, duration : 40 ms (1.00 video frame)
Interleave, preload duration : 500 ms

Скриншот c названием фильма

Скриншоты

[Цитировать]



Показать сообщения:    

Текущее время: 06-Дек 08:49

Часовой пояс: UTC + 3


Вы не можете начинать темы
Вы не можете отвечать на сообщения
Вы не можете редактировать свои сообщения
Вы не можете удалять свои сообщения
Вы не можете голосовать в опросах
Вы не можете прикреплять файлы к сообщениям
Вы не можете скачивать файлы

!ВНИМАНИЕ!
Сайт не предоставляет электронные версии произведений, а занимается лишь коллекционированием и каталогизацией ссылок, присылаемых и публикуемых на форуме нашими читателями. Если вы являетесь правообладателем какого-либо представленного материала и не желаете, чтобы ссылка на него находилась в нашем каталоге, свяжитесь с нами, и мы незамедлительно удалим ее. Файлы для обмена на трекере предоставлены пользователями сайта, и администрация не несет ответственности за их содержание. Просьба не заливать файлы, защищенные авторскими правами, а также файлы нелегального содержания!