[ Сегодня идет свободное скачивание без начисления Download ]


Статистика раздачи
Нет
 
   
 
Top  
 
 
Братец Баджранги (Брат Баджранги) / Bajrangi Bhaijaan
Страна: Индия
Жанр: Драма, комедия
Год выпуска: 2015
Продолжительность: 02:39:20
Перевод: Любительский (двухголосый закадровый) - DeadSno & den904
Cубтитры: Русские (только для песен)
Режиссер: Кабир Кхан / Kabir Khan
В ролях: Салман Кхан, Карина Капур, Харшаали Мальхотра, Навазуддин Сиддикуи, Ом Пури, Шарат Саксена, Мехер Видж, Наджим Кхан, Камлеш Гилл, Аднан Сами, Раджеш Шарма
Описание: Паван Кумар Чатурведи, которого люди ласково называют просто братцем Баджранги – самый честный человек во всей Индии. Он ни разу в жизни никому не солгал и даже мухи ни одной не обидел. Он является ярым последователем Шри Ханумана и всей душой верен своей религии. Но однажды, на его пути встречается Мунни, шестилетняя девочка-мусульманка, которая была разлучена от своей матери и при весьма нелепых обстоятельствах оказалась в Индии. Добрый душой Баджранги решает помочь бедняжке найти свой дом и родителей. Но это оказалось не так-то просто. Ведь Мунни – немая, да к тому же родом из Пакистана, куда даже в страшном сне не дай Бог забрести индийцу без паспорта и визы…
Сэмпл: http://multi-up.com/1065456
Качество видео: WEBRip-AVC
Формат видео: MKV
Видео: MPEG4, AVC, 1288x544 (2.35), 24,000 fps, 1 656 Kbps (0.098 bit/pixel)
Аудио: AC3, 48.0 KHz, 2 ch, 192 Кбит/с
Формат субтитров: softsub (SRT)
Перевод и редакция: Honey&Haseena

MediaInfo

Общее
Полное имя : C:\Фильмы\БратецБаджранги.2015.Kolobok.HoneyHaseena.mkv
Формат : Matroska
Версия формата : Version 4 / Version 2
Размер файла : 2,21 Гбайт
Продолжительность : 2 ч. 39 м.
Режим общего битрейта : Переменный
Общий поток : 1886 Кбит/сек
Программа кодирования : Lavf54.63.104
Видео
Идентификатор : 1
Формат : AVC
Формат/Информация : Advanced Video Codec
Профиль формата : High@L4.1
Параметр CABAC формата : Да
Параметр ReFrames формата : 4 кадра
Идентификатор кодека : V_MPEG4/ISO/AVC
Продолжительность : 2 ч. 39 м.
Вид битрейта : Переменный
Битрейт : 1656 Кбит/сек
Номинальный битрейт : 1867 Кбит/сек
Максимальный битрейт : 40,0 Мбит/сек
Ширина : 1288 пикселей
Высота : 544 пикселя
Соотношение сторон : 2,35:1
Режим частоты кадров : Постоянный
Частота кадров : 24,000 кадра/сек
Цветовое пространство : YUV
Субдискретизация насыщенности : 4:2:0
Битовая глубина : 8 бит
Тип развёртки : Прогрессивная
Бит/(Пиксели*Кадры) : 0.098
Размер потока : 1,94 Гбайт (88%)
Заголовок : Poker DrC
Библиотека кодирования : x264 core 146 r2538 121396c
Настройки программы : cabac=1 / ref=5 / deblock=1:0:0 / analyse=0x3:0x113 / me=umh / subme=8 / psy=1 / psy_rd=1.00:0.00 / mixed_ref=1 / me_range=16 / chroma_me=1 / trellis=1 / 8x8dct=1 / cqm=0 / deadzone=21,11 / fast_pskip=1 / chroma_qp_offset=-2 / threads=18 / lookahead_threads=3 / sliced_threads=0 / slices=4 / nr=0 / decimate=1 / interlaced=0 / bluray_compat=1 / constrained_intra=0 / bframes=3 / b_pyramid=1 / b_adapt=2 / b_bias=0 / direct=3 / weightb=1 / open_gop=1 / weightp=1 / keyint=24 / keyint_min=1 / scenecut=40 / intra_refresh=0 / rc_lookahead=24 / rc=2pass / mbtree=1 / bitrate=1867 / ratetol=1.0 / qcomp=0.60 / qpmin=0 / qpmax=69 / qpstep=4 / cplxblur=20.0 / qblur=0.5 / vbv_maxrate=40000 / vbv_bufsize=30000 / nal_hrd=vbr / filler=0 / ip_ratio=1.40 / aq=1:1.00
Default : Да
Forced : Нет
Аудио
Идентификатор : 2
Формат : AC-3
Формат/Информация : Audio Coding 3
Расширение режима : CM (complete main)
Параметр Endianness формата : Big
Идентификатор кодека : A_AC3
Продолжительность : 2 ч. 39 м.
Вид битрейта : Постоянный
Битрейт : 192 Кбит/сек
Каналы : 2 канала
Расположение каналов : Front: L R
Частота : 48,0 КГц
Битовая глубина : 16 бит
Метод сжатия : С потерями
Размер потока : 231 Мбайт (10%)
Default : Да
Forced : Нет
Текст
Идентификатор : 3
Формат : UTF-8
Идентификатор кодека : S_TEXT/UTF8
Идентификатор кодека/Информация : UTF-8 Plain Text
Default : Да
Forced : Нет

Скриншот c названием фильма

Скриншоты

[Цитировать]



Показать сообщения:    

Текущее время: 08-Дек 03:11

Часовой пояс: UTC + 3


Вы не можете начинать темы
Вы не можете отвечать на сообщения
Вы не можете редактировать свои сообщения
Вы не можете удалять свои сообщения
Вы не можете голосовать в опросах
Вы не можете прикреплять файлы к сообщениям
Вы не можете скачивать файлы

!ВНИМАНИЕ!
Сайт не предоставляет электронные версии произведений, а занимается лишь коллекционированием и каталогизацией ссылок, присылаемых и публикуемых на форуме нашими читателями. Если вы являетесь правообладателем какого-либо представленного материала и не желаете, чтобы ссылка на него находилась в нашем каталоге, свяжитесь с нами, и мы незамедлительно удалим ее. Файлы для обмена на трекере предоставлены пользователями сайта, и администрация не несет ответственности за их содержание. Просьба не заливать файлы, защищенные авторскими правами, а также файлы нелегального содержания!