[ Сегодня идет свободное скачивание без начисления Download ]


Статистика раздачи
Нет
 
   
 
Top  
 
 
--Всё о Еве / All About Eve
Цветная версия / Colorized Version
-- Страна: США
Производство: 20th Century Fox Film Corporation
Жанр: драма, ...
Год: 1950
Продолжительность: 02:18:18
Перевод: Профессиональный (многоголосый закадровый).
Оригинальная аудиодорожка: нет.
Субтитры: португальские (hardsub).--Режиссер: Джозеф Лео Манкевич / Joseph Leo Mankiewicz
Сценарий: Джозеф Лео Манкевич, Эрих Кёстнер, Мэри Орр
Продюсер: Дэррил Ф. Занук
Оператор: Милтон Р. Крэснер
Композитор: Альфред Ньюман
Художник: Джордж У. Дэвис, Лайл Р. Вилер, Томас Литтл, ...
Монтаж: Барбара МакЛин
В ролях:
Бетт Дэвис, Энн Бакстер, Джордж Сэндерс, Селест Холм, Гэри Меррил, Хью Марлоу, Грегори Ратофф, Барбара Бейтс, Мэрилин Монро, Тельма Риттер, ...--Описание:
Стареющая звезда Бродвея Марго Ченнинг имела все: успех, друзей, молодого любовника. Скромная и трудолюбивая Ева становится ее помощницей, выполняющей все желания хозяйки. Быстрее всех понимает, что Евой движет желание стать «новой Марго Ченнинг», циничный театральный критик Аддисон Де Витт.
Пресыщенный жизнью и презирающий окружающую его благопристойность, он решает помочь молодой карьеристке. Она становится его благодарной ученицей и упорно, не гнушаясь ничем, идет к вершинам славы, предавая окружающих ее людей…--Доп. информация:
Эта цветная версия фильма, показанная на телеканале «Telecine Cult» с португальскими субтитрами (субтитры не отключаются).
Релиз подготовил Давид Степанов.--Черно-белая версия:
--Разыскиваются цветные версии фильмов:
Глен или Гленда / Glen or Glenda - США, реж. Эдвард Д. Вуд мл. / Edward D. Wood Jr., 1953.
Евангелие от Матфея / The Gospel According to St. Matthew / Il vangelo secondo Matteo - Италия, Франция, реж. Пьер Паоло Пазолини / Pier Paolo Pasolini, 1964.-- --Сэмпл: http://multi-up.com/1065559
Качество: TVRip
Формат: AVI
Видео кодек: XviD
Аудио кодек: AC3
Видео: 512x384 (1.33:1), 23.976 fps, XviD MPEG-4 ~1317 kbps avg, 0.28 bit/pixel
Аудио #1: 48 kHz, AC3 Dolby Digital, 2/0 (L,R) ch, ~192.00 kbps |Rus|

MediaInfo

ОбщееФормат : AVIФормат/Информация : Audio Video InterleaveРазмер файла : 1,46 ГбайтПродолжительность : 2 ч. 18 м.Общий поток : 1516 Кбит/секПрограмма кодирования : VirtualDubMod 1.5.4.1 (build 2178/release)Библиотека кодирования : VirtualDubMod build 2178/release
ВидеоИдентификатор : 0Формат : MPEG-4 VisualПрофиль формата : Advanced Simple@L5Параметр BVOP формата : 1Параметр QPel формата : НетПараметр GMC формата : Без точки переходаПараметр матрицы формата : ВыборочнаяИдентификатор кодека : XVIDИдентификатор кодека/Подсказка : XviDПродолжительность : 2 ч. 18 м.Битрейт : 1317 Кбит/секШирина : 512 пикселейВысота : 384 пикселяСоотношение сторон : 4:3Частота кадров : 23,976 кадра/секЦветовое пространство : YUVСубдискретизация насыщенности : 4:2:0Битовая глубина : 8 битТип развёртки : ПрогрессивнаяМетод сжатия : С потерямиБит/(Пиксели*Кадры) : 0.279Размер потока : 1,27 Гбайт (87%)Библиотека кодирования : XviD 73
АудиоИдентификатор : 1Формат : AC-3Формат/Информация : Audio Coding 3Расширение режима : CM (complete main)Параметр Endianness формата : BigИдентификатор кодека : 2000Продолжительность : 2 ч. 18 м.Вид битрейта : ПостоянныйБитрейт : 192 Кбит/секКаналы : 2 каналаРасположение каналов : Front: L RЧастота : 48,0 КГцМетод сжатия : С потерямиРазмер потока : 190 Мбайт (13%)Выравнивание : Разделение по промежуткамПродолжительность промежутка : 96 мс. (2,30 видеокадра)Время предзагрузки промежутка : 96 мс.

Скриншот c названием фильма

Скриншоты

[Цитировать]



Показать сообщения:    

Текущее время: 11-Дек 09:10

Часовой пояс: UTC + 3


Вы не можете начинать темы
Вы не можете отвечать на сообщения
Вы не можете редактировать свои сообщения
Вы не можете удалять свои сообщения
Вы не можете голосовать в опросах
Вы не можете прикреплять файлы к сообщениям
Вы не можете скачивать файлы

!ВНИМАНИЕ!
Сайт не предоставляет электронные версии произведений, а занимается лишь коллекционированием и каталогизацией ссылок, присылаемых и публикуемых на форуме нашими читателями. Если вы являетесь правообладателем какого-либо представленного материала и не желаете, чтобы ссылка на него находилась в нашем каталоге, свяжитесь с нами, и мы незамедлительно удалим ее. Файлы для обмена на трекере предоставлены пользователями сайта, и администрация не несет ответственности за их содержание. Просьба не заливать файлы, защищенные авторскими правами, а также файлы нелегального содержания!