[ Сегодня идет свободное скачивание без начисления Download ]


Статистика раздачи
Нет
 
   
 
Top  
 
 
Название: Полиция
Оригинальное название: Police
Год выпуска: 1985
Страна: Франция
Жанр: триллер, драма, мелодрама, криминал
Продолжительность: 01:53:53
Перевод: профессиональный многоголосый
Режиссёр: Морис Пиала
В ролях: Жерар Депардьё, Софи Марсо, Ришар Анконина, Паскаль Рокар, Сандрин Боннэр, Фрэнк Карауи, Джонатан Леина, Жак Мату, Бернард Фузельер, Абдель Кадер Туати, Бешир Идани, Реми Карпентье
Описание: Инспектор полиции Луис Венсан Маньин не склонен к сантиментам. Он груб, жесток и циничен. Расследуя дело о торговцах наркотиками из Туниса, он знакомится со странной и непредсказуемой девушкой Корней. На допросе, где они впервые встретились, Луису и в голову не могло прийти, что страсть, которая соединит их, смертельно опасна для жизни...

Качество: BDRip AVC
Формат: MKV
Видео: MPEG-4 AVC, 2598 Кбит/с, 956х576, 24 кадра/с
Аудио 1: русский, AC3, 192 kbps, 2 ch, 48 kHz [профессиональный многоголосый]
Аудио 2: французский, AC3, 192 kbps, 1 ch, 48 kHz [оригинал]
Субтитры 1: русские
Субтитры 2: английские

Награды

Сезар, 1986 год
Номинации (2):
Лучший актер (Жерар Депардье)
Лучший монтаж
Венецианский кинофестиваль, 1985 год
Победитель (1):
Серебряная премия за лучшую мужскую роль ( Жерар Депардье )

Инфо-файл

Общее
Уникальный идентификатор : 250388085333989280663677571344781923899 (0xBC5EFDBA733504AAA0D5440E5BB1D63B)
Полное имя : D:VideoПолиция.1985.BDRip.AVC.mkv
Формат : Matroska
Версия формата : Version 4 / Version 2
Размер файла : 2,42 Гбайт
Продолжительность : 1 ч. 53 м.
Общий поток : 3042 Кбит/сек
Название фильма : BDRip -- STarankov
Дата кодирования : UTC 2015-09-12 09:28:24
Программа кодирования : mkvmerge v8.2.0 ('World of Adventure') 64bit
Библиотека кодирования : libebml v1.3.1 + libmatroska v1.4.2
DURATION : 01:52:21.999000000
NUMBER_OF_FRAMES : 1494
NUMBER_OF_BYTES : 56992
_STATISTICS_WRITING_APP : mkvmerge v8.2.0 ('World of Adventure') 64bit
_STATISTICS_WRITING_DATE_UTC : 2015-09-12 09:28:24
_STATISTICS_TAGS : BPS DURATION NUMBER_OF_FRAMES NUMBER_OF_BYTES
Видео
Идентификатор : 1
Формат : AVC
Формат/Информация : Advanced Video Codec
Профиль формата : [email protected]
Параметр CABAC формата : Да
Параметр ReFrames формата : 9 кадров
Идентификатор кодека : V_MPEG4/ISO/AVC
Продолжительность : 1 ч. 53 м.
Битрейт : 2598 Кбит/сек
Ширина : 956 пикселей
Высота : 576 пикселей
Соотношение сторон : 5:3
Режим частоты кадров : Постоянный
Частота кадров : 24,000 кадра/сек
Цветовое пространство : YUV
Субдискретизация насыщенности : 4:2:0
Битовая глубина : 8 бит
Тип развёртки : Прогрессивная
Бит/(Пиксели*Кадры) : 0.197
Размер потока : 2,07 Гбайт (85%)
Библиотека кодирования : x264 core 146 r2538 121396c
Настройки программы : cabac=1 / ref=9 / deblock=1:-2:-2 / analyse=0x3:0x113 / me=umh / subme=10 / psy=1 / psy_rd=1.00:0.15 / mixed_ref=1 / me_range=32 / chroma_me=1 / trellis=2 / 8x8dct=1 / cqm=0 / deadzone=21,11 / fast_pskip=1 / chroma_qp_offset=-3 / threads=6 / lookahead_threads=1 / sliced_threads=0 / nr=0 / decimate=1 / interlaced=0 / bluray_compat=0 / constrained_intra=0 / bframes=9 / b_pyramid=2 / b_adapt=2 / b_bias=0 / direct=1 / weightb=1 / open_gop=0 / weightp=2 / keyint=230 / keyint_min=23 / scenecut=40 / intra_refresh=0 / rc_lookahead=40 / rc=crf / mbtree=0 / crf=19.8 / qcomp=0.60 / qpmin=0 / qpmax=69 / qpstep=4 / vbv_maxrate=40000 / vbv_bufsize=50000 / crf_max=0.0 / nal_hrd=none / filler=0 / ip_ratio=1.40 / pb_ratio=1.30 / aq=1:1.00
Язык : French
Default : Да
Forced : Нет
DURATION : 01:53:53.042000000
NUMBER_OF_FRAMES : 163993
NUMBER_OF_BYTES : 2268511164
_STATISTICS_WRITING_APP : mkvmerge v8.2.0 ('World of Adventure') 64bit
_STATISTICS_WRITING_DATE_UTC : 2015-09-12 09:28:24
_STATISTICS_TAGS : BPS DURATION NUMBER_OF_FRAMES NUMBER_OF_BYTES
Аудио #1
Идентификатор : 2
Формат : AC-3
Формат/Информация : Audio Coding 3
Расширение режима : CM (complete main)
Параметр Endianness формата : Big
Идентификатор кодека : A_AC3
Продолжительность : 1 ч. 53 м.
Вид битрейта : Постоянный
Битрейт : 192 Кбит/сек
Каналы : 2 канала
Расположение каналов : Front: L R
Частота : 48,0 КГц
Метод сжатия : С потерями
Размер потока : 156 Мбайт (6%)
Заголовок : MVO
Язык : Russian
Default : Да
Forced : Нет
Аудио #2
Идентификатор : 3
Формат : AC-3
Формат/Информация : Audio Coding 3
Расширение режима : CM (complete main)
Параметр Endianness формата : Big
Идентификатор кодека : A_AC3
Продолжительность : 1 ч. 53 м.
Вид битрейта : Постоянный
Битрейт : 192 Кбит/сек
Каналы : 1 канал
Расположение каналов : Front: C
Частота : 48,0 КГц
Метод сжатия : С потерями
Размер потока : 156 Мбайт (6%)
Заголовок : Original
Язык : French
Default : Нет
Forced : Нет
Текст #1
Идентификатор : 4
Формат : UTF-8
Идентификатор кодека : S_TEXT/UTF8
Идентификатор кодека/Информация : UTF-8 Plain Text
Заголовок : русский
Язык : Russian
Default : Нет
Forced : Нет
Текст #2
Идентификатор : 5
Формат : UTF-8
Идентификатор кодека : S_TEXT/UTF8
Идентификатор кодека/Информация : UTF-8 Plain Text
Заголовок : английский
Default : Нет
Forced : Нет

Скриншоты

[Цитировать]



Показать сообщения:    

Текущее время: 06-Дек 21:01

Часовой пояс: UTC + 3


Вы не можете начинать темы
Вы не можете отвечать на сообщения
Вы не можете редактировать свои сообщения
Вы не можете удалять свои сообщения
Вы не можете голосовать в опросах
Вы не можете прикреплять файлы к сообщениям
Вы не можете скачивать файлы

!ВНИМАНИЕ!
Сайт не предоставляет электронные версии произведений, а занимается лишь коллекционированием и каталогизацией ссылок, присылаемых и публикуемых на форуме нашими читателями. Если вы являетесь правообладателем какого-либо представленного материала и не желаете, чтобы ссылка на него находилась в нашем каталоге, свяжитесь с нами, и мы незамедлительно удалим ее. Файлы для обмена на трекере предоставлены пользователями сайта, и администрация не несет ответственности за их содержание. Просьба не заливать файлы, защищенные авторскими правами, а также файлы нелегального содержания!