[ Сегодня идет свободное скачивание без начисления Download ]


Статистика раздачи
Нет
 
   
 
Top  
 
 
Год выхода: 1962
Жанр: мюзикл, комедия
Режиссер: Эльдар Рязанов
В ролях: Лариса Голубкина, Юрий Яковлев, Игорь Ильинский, Николай Крючков, Виктор Кольцов, Антоний Ходурский, Татьяна Шмыга, Лев Поляков, Алексей Полевой, Владимир Ширяев
О фильме:
Исторический анекдот, удачно и к месту рассказанный, всегда найдет благодарных слушателей, а, тем более, зрителей. История девицы-корнета, желающей наравне с мужчинами защищать отечество, была счастливо вспомнена драматургом А. Гладковым, воплощена им в комедии «Давным-давно» и экранизирована Э. Рязановым в 1962 — к 150-летнему юбилею победы над Наполеоном.
Все удачно сложилось в этом киноводевиле: и знакомый сюжет, изобилующий приключениями, переодеваниями, интригами, и замечательная, использующая характерные жанровые модели — романса, баллады, гусарской песни — музыка Т. Хренникова, и звездный актерский ансамбль.

Выпущено: СССР
Студия: Мосфильм
Продолжительность: 01:34:08
Перевод: Не требуется
Кодек: x264
Качество: BDRip (источник: Blu-ray Disc)
Видео: 1480x1080 (1,37:1), 23.976 fps, 11,4 Mbps
Аудио #1: AC-3, 6 ch, 448 kbps (Rus)
Субтитры: Нет

Скриншоты

MI

Общее
Уникальный идентификатор : 231806245722796060937737309074854448853 (0xAE64424D636818DD89F49D647EE30ED5)
Полное имя : F:Гусарская.баллада.1962.BDRip.1080p.Rus.mkv
Формат : Matroska
Версия формата : Version 2
Размер файла : 7,76 Гбайт
Продолжительность : 1 ч. 34 м.
Общий поток : 11,8 Мбит/сек
Название фильма : Гусарская баллада (1962)
Дата кодирования : UTC 2013-12-12 13:56:59
Программа кодирования : mkvmerge v5.8.0 ('No Sleep / Pillow') built on Sep 2 2012 15:37:04
Библиотека кодирования : libebml v1.2.3 + libmatroska v1.3.0
Attachment : Yes
Видео
Идентификатор : 1
Формат : AVC
Формат/Информация : Advanced Video Codec
Профиль формата : High@L4.1
Параметр CABAC формата : Да
Параметр ReFrames формата : 5 кадров
Идентификатор кодека : V_MPEG4/ISO/AVC
Продолжительность : 1 ч. 34 м.
Битрейт : 11,4 Мбит/сек
Ширина : 1480 пикселей
Высота : 1080 пикселей
Соотношение сторон : 1,370
Режим частоты кадров : Постоянный
Частота кадров : 23,976 кадра/сек
Цветовое пространство : YUV
Субдискретизация насыщенности : 4:2:0
Битовая глубина : 8 бит
Тип развёртки : Прогрессивная
Бит/(Пиксели*Кадры) : 0.296
Размер потока : 7,31 Гбайт (94%)
Заголовок : Release by N1NT3NDO
Библиотека кодирования : x264 core 140 r2377 1ca7bb9
Настройки программы : cabac=1 / ref=5 / deblock=1:-3:-3 / analyse=0x3:0x133 / me=umh / subme=11 / psy=1 / psy_rd=1.00:0.00 / mixed_ref=1 / me_range=32 / chroma_me=1 / trellis=2 / 8x8dct=1 / cqm=0 / deadzone=21,11 / fast_pskip=0 / chroma_qp_offset=-2 / threads=12 / lookahead_threads=1 / sliced_threads=0 / nr=0 / decimate=0 / interlaced=0 / bluray_compat=0 / constrained_intra=0 / bframes=6 / b_pyramid=2 / b_adapt=2 / b_bias=0 / direct=3 / weightb=1 / open_gop=0 / weightp=2 / keyint=240 / keyint_min=23 / scenecut=40 / intra_refresh=0 / rc=2pass / mbtree=0 / bitrate=11351 / ratetol=1.0 / qcomp=0.60 / qpmin=0 / qpmax=69 / qpstep=4 / cplxblur=20.0 / qblur=0.5 / ip_ratio=1.40 / pb_ratio=1.30 / aq=1:1.00
Язык : English
Default : Да
Forced : Нет
Аудио
Идентификатор : 2
Формат : AC-3
Формат/Информация : Audio Coding 3
Расширение режима : CM (complete main)
Параметр Endianness формата : Big
Идентификатор кодека : A_AC3
Продолжительность : 1 ч. 34 м.
Вид битрейта : Постоянный
Битрейт : 448 Кбит/сек
Каналы : 6 каналов
Расположение каналов : Front: L C R, Side: L R, LFE
Частота : 48,0 КГц
Битовая глубина : 16 бит
Метод сжатия : С потерями
Размер потока : 302 Мбайт (4%)
Заголовок : Rus
Язык : Russian
Default : Да
Forced : Нет
Меню
00:00:00.000 : :Chapter 01
00:06:38.398 : :Chapter 02
00:10:34.634 : :Chapter 03
00:16:32.992 : :Chapter 04
00:22:36.355 : :Chapter 05
00:26:44.477 : :Chapter 06
00:29:50.789 : :Chapter 07
00:32:04.922 : :Chapter 08
00:36:11.169 : :Chapter 09
00:39:33.371 : :Chapter 10
00:40:46.444 : :Chapter 11
00:48:32.910 : :Chapter 12
00:50:55.052 : :Chapter 13
00:54:41.695 : :Chapter 14
01:01:21.678 : :Chapter 15
01:06:49.505 : :Chapter 16
01:10:33.229 : :Chapter 17
01:16:09.564 : :Chapter 18
01:27:02.217 : :Chapter 19
01:29:49.384 : :Chapter 20

x264

x264 [info]: frame I:743 Avg QP:17.65 size:176818
x264 [info]: frame P:29199 Avg QP:20.25 size:100401
x264 [info]: frame B:105494 Avg QP:21.79 size: 46944
x264 [info]: consecutive B-frames: 1.5% 2.6% 7.9% 18.8% 19.1% 40.4% 9.7%

[Цитировать]



Показать сообщения:    

Текущее время: 09-Дек 20:27

Часовой пояс: UTC + 3


Вы не можете начинать темы
Вы не можете отвечать на сообщения
Вы не можете редактировать свои сообщения
Вы не можете удалять свои сообщения
Вы не можете голосовать в опросах
Вы не можете прикреплять файлы к сообщениям
Вы не можете скачивать файлы

!ВНИМАНИЕ!
Сайт не предоставляет электронные версии произведений, а занимается лишь коллекционированием и каталогизацией ссылок, присылаемых и публикуемых на форуме нашими читателями. Если вы являетесь правообладателем какого-либо представленного материала и не желаете, чтобы ссылка на него находилась в нашем каталоге, свяжитесь с нами, и мы незамедлительно удалим ее. Файлы для обмена на трекере предоставлены пользователями сайта, и администрация не несет ответственности за их содержание. Просьба не заливать файлы, защищенные авторскими правами, а также файлы нелегального содержания!