[ Сегодня идет свободное скачивание без начисления Download ]


Статистика раздачи
Нет
 
   
 
Top  
 
 
Информация о фильме
Название: Гладиатор
Оригинальное название: Gladiator
Год выхода: 2000
Жанр: Боевик, драма, приключения
Режиссер: Ридли Скотт
В ролях: Расселл Кроу, Хоакин Феникс, Конни Нилсен, Оливер Рид, Ричард Харрис, Дерек Якоби, Джимон Хонсу, Дэвид Шофилд, Джон Шрэпнел, Томас Арана, Ральф Мюллер, Спенсер Трит Кларк, Дэвид Хеммингз, Томми Флэнеган, Свен-Оле Торсен, Омид Джалили, Николас МакГафи, Крис Келл, Тони Каррен, Марк Льюис, Джон Куинн

В великой Римской империи не было военачальника, равного генералу Максимусу. Непобедимые легионы, которыми командовал этот благородный воин, боготворили его и могли последовать за ним даже в ад.
Но случилось так, что отважный Максимус, готовый сразиться с любым противником в честном бою, оказался бессилен против вероломных придворных интриг. Генерала предали и приговорили к смерти. Чудом избежав гибели, Максимус становится гладиатором.
Быстро снискав себе славу в кровавых поединках, он оказывается в знаменитом римском Колизее, на арене которого он встретится в смертельной схватке со своим заклятым врагом…

Страна: США, Великобритания
Продолжительность: 02:34:59
Перевод: Профессиональный (полное дублирование)
Файл
Кодек: H.264
Качество: BDRip 720 от SuperMin
Видео: 1280х544 (2.35:1), 3395 Kbps, 23.976 fps
Звук: Русский (AC-3, 6ch, 640 kbps)
Субтитры: Русские (форс., полные), английские

Лог

x264 [info]: frame I:1720 Avg QP:15.63 size:115265
x264 [info]: frame P:53644 Avg QP:18.74 size: 34862
x264 [info]: frame B:167581 Avg QP:21.36 size: 11202
x264 [info]: consecutive B-frames: 3.3% 5.7% 11.3% 17.7% 14.6% 38.2% 5.6% 2.0% 1.6%
x264 [info]: kb/s:3394.58
encoded 222945 frames, 2.92 fps, 3394.58 kb/s, duration 21:11:33.08

MI

Video
ID : 1
Format : AVC
Format/Info : Advanced Video Codec
Format profile : High@L4.1
Format settings, CABAC : Yes
Format settings, ReFrames : 10 frames
Codec ID : V_MPEG4/ISO/AVC
Duration : 2h 34mn
Bit rate : 3 395 Kbps
Width : 1 280 pixels
Height : 544 pixels
Display aspect ratio : 2.35:1
Original display aspect ratio : 2.35:1
Frame rate mode : Constant
Frame rate : 23.976 fps
Color space : YUV
Chroma subsampling : 4:2:0
Bit depth : 8 bits
Scan type : Progressive
Bits/(Pixel*Frame) : 0.203
Stream size : 3.59 GiB (82%)
Writing library : x264 core 146 r2538kMod 121396c
Encoding settings : cabac=1 / ref=10 / deblock=1:0:0 / analyse=0x3:0x133 / me=umh / subme=11 / psy=1 / fade_compensate=0.00 / psy_rd=1.00:0.00 / mixed_ref=1 / me_range=32 / chroma_me=1 / trellis=2 / 8x8dct=1 / cqm=0 / deadzone=21,11 / fast_pskip=0 / chroma_qp_offset=-2 / threads=5 / lookahead_threads=1 / sliced_threads=0 / nr=0 / decimate=1 / interlaced=0 / bluray_compat=0 / constrained_intra=0 / fgo=0 / bframes=8 / b_pyramid=2 / b_adapt=2 / b_bias=0 / direct=1 / weightb=1 / open_gop=0 / weightp=2 / keyint=240 / keyint_min=23 / scenecut=40 / intra_refresh=0 / rc_lookahead=40 / rc=2pass / mbtree=1 / bitrate=3395 / ratetol=1.0 / qcomp=0.60 / qpmin=0 / qpmax=69 / qpstep=4 / cplxblur=20.0 / qblur=0.5 / ip_ratio=1.40 / aq=1:1.00
Default : Yes
Forced : No
Audio
ID : 2
Format : AC-3
Format/Info : Audio Coding 3
Mode extension : CM (complete main)
Format settings, Endianness : Big
Codec ID : A_AC3
Duration : 2h 34mn
Bit rate mode : Constant
Bit rate : 640 Kbps
Channel count : 6 channels
Channel positions : Front: L C R, Side: L R, LFE
Sampling rate : 48.0 KHz
Bit depth : 16 bits
Compression mode : Lossy
Stream size : 709 MiB (16%)
Title : Дубляж, Blu-ray CEE
Language : Russian
Default : Yes
Forced : No
Text #1
ID : 3
Format : UTF-8
Codec ID : S_TEXT/UTF8
Codec ID/Info : UTF-8 Plain Text
Title : форсированные
Language : Russian
Default : Yes
Forced : No
Text #2
ID : 4
Format : UTF-8
Codec ID : S_TEXT/UTF8
Codec ID/Info : UTF-8 Plain Text
Title : Полные
Language : Russian
Default : No
Forced : No
Text #3
ID : 5
Format : UTF-8
Codec ID : S_TEXT/UTF8
Codec ID/Info : UTF-8 Plain Text
Title : Полные
Language : English
Default : No
Forced : No
Menu
00:00:00.000 : en:
00:07:13.307 : en:
00:12:50.102 : en:
00:17:29.006 : en:
00:22:20.338 : en:
00:31:49.407 : en:
00:36:04.536 : en:
00:39:20.399 : en:
00:46:02.384 : en:
00:50:05.502 : en:
00:53:15.984 : en:
00:58:31.381 : en:
01:06:07.088 : en:
01:15:04.082 : en:
01:21:23.503 : en:
01:29:13.639 : en:
01:34:03.970 : en:
01:39:33.801 : en:
01:44:11.244 : en:
01:48:18.450 : en:
01:52:17.188 : en:
01:58:17.381 : en:
01:59:30.955 : en:
02:09:19.251 : en:
02:13:33.754 : en:
02:18:36.140 : en:
02:22:58.945 : en:
02:27:13.115 : en:

Скриншоты

Релиз от: SuperMin

[Цитировать]



Показать сообщения:    

Текущее время: 02-Дек 22:47

Часовой пояс: UTC + 3


Вы не можете начинать темы
Вы не можете отвечать на сообщения
Вы не можете редактировать свои сообщения
Вы не можете удалять свои сообщения
Вы не можете голосовать в опросах
Вы не можете прикреплять файлы к сообщениям
Вы не можете скачивать файлы

!ВНИМАНИЕ!
Сайт не предоставляет электронные версии произведений, а занимается лишь коллекционированием и каталогизацией ссылок, присылаемых и публикуемых на форуме нашими читателями. Если вы являетесь правообладателем какого-либо представленного материала и не желаете, чтобы ссылка на него находилась в нашем каталоге, свяжитесь с нами, и мы незамедлительно удалим ее. Файлы для обмена на трекере предоставлены пользователями сайта, и администрация не несет ответственности за их содержание. Просьба не заливать файлы, защищенные авторскими правами, а также файлы нелегального содержания!