[ Сегодня идет свободное скачивание без начисления Download ]


Статистика раздачи
Скачал: [ 1 ]
 
   
 
Top  
 
 
Школа современных технологий | Среда знаний. Основы GIT (2015) PCRec [H.264/720p]- Автор (режиссер): Андрей Алехин
Жанр: Программирование, GIT
Описание:
Многие знают, что такое GIT. А уж если вы программируете и работаете в команде, то это слово вы слышите чаще других.
Так что же такое GIT? GIT — это совершенно бесплатная и очень мощная система контроля версий (СКВ). Представьте себе, что вы работаете над проектом как верстальщик. Сколько версий макетов придется сверстать? А сколько бекапов сделать? Именно для контроля релизов и промежуточных этапов работ были придуманы СКВ.
На этом вебинаре вы узнаете и попробуете на вкус GIT. Изучите основные команды и научитесь работе с ветками.
Вы освоите, все этапы работы с системой GIT. Мы научимся разворачивать GIT, изучим консоль и разберем большинство самых популярных команд. Рассмотрим технологию веток и начнем с ними работать.
Продолжительность: 01:59:45
Качество видео: PCRec
Видео: AVC/H.264, 1280x720, ~129-231 kbps
Аудио: AAC, 2 ch, 126 kbps, VBR

Содержание курса:

Что такое GIT
Установка GIT
Консоль
Основные команды
Что такое ветки
Работа с ветками

Mediainfo:

Общее
Полное имя                               : C:\Основы GIT - 2015\1.mp4
Формат                                   : MPEG-4
Профиль формата                          : Base Media / Version 2
Идентификатор кодека                     : mp42
Размер файла                             : 65,9 Мбайт
Продолжительность                        : 35 м.
Режим общего битрейта                    : Переменный
Общий поток                              : 258 Кбит/сек
Дата кодирования                         : UTC 2015-04-11 08:34:20
Дата пометки                             : UTC 2015-04-11 08:34:20
Видео
Идентификатор                            : 1
Формат                                   : AVC
Формат/Информация                        : Advanced Video Codec
Профиль формата                          : Baseline@L3.1
Параметр CABAC формата                   : Нет
Параметр ReFrames формата                : 3 кадра
Идентификатор кодека                     : avc1
Идентификатор кодека/Информация          : Advanced Video Coding
Продолжительность                        : 35 м.
Битрейт                                  : 129 Кбит/сек
Ширина                                   : 1280 пикселей
Высота                                   : 720 пикселей
Соотношение сторон                       : 16:9
Режим частоты кадров                     : Постоянный
Частота кадров                           : 30,000 кадров/сек
Стандарт вещания                         : NTSC
Цветовое пространство                    : YUV
Субдискретизация насыщенности            : 4:2:0
Битовая глубина                          : 8 бит
Тип развёртки                            : Прогрессивная
Бит/(Пиксели*Кадры)                      : 0.005
Размер потока                            : 33,1 Мбайт (50%)
Язык                                     : English
Дата кодирования                         : UTC 2015-04-11 08:34:21
Дата пометки                             : UTC 2015-04-11 08:34:21
Цветовой диапазон                        : Limited
Аудио
Идентификатор                            : 2
Формат                                   : AAC
Формат/Информация                        : Advanced Audio Codec
Профиль формата                          : LC
Идентификатор кодека                     : 40
Продолжительность                        : 35 м.
Вид битрейта                             : Переменный
Битрейт                                  : 126 Кбит/сек
Максимальный битрейт                     : 151 Кбит/сек
Каналы                                   : 2 канала
Расположение каналов                     : Front: L R
Частота                                  : 44,1 КГц
Метод сжатия                             : С потерями
Размер потока                            : 32,1 Мбайт (49%)
Язык                                     : English
Дата кодирования                         : UTC 2015-04-11 08:34:21
Дата пометки                             : UTC 2015-04-11 08:34:21
Общее
Полное имя                               : C:\Основы GIT - 2015\2.mp4
Формат                                   : MPEG-4
Профиль формата                          : Base Media / Version 2
Идентификатор кодека                     : mp42
Размер файла                             : 49,9 Мбайт
Продолжительность                        : 19 м.
Режим общего битрейта                    : Переменный
Общий поток                              : 359 Кбит/сек
Дата кодирования                         : UTC 2015-04-11 09:34:07
Дата пометки                             : UTC 2015-04-11 09:34:07
Видео
Идентификатор                            : 1
Формат                                   : AVC
Формат/Информация                        : Advanced Video Codec
Профиль формата                          : Baseline@L3.1
Параметр CABAC формата                   : Нет
Параметр ReFrames формата                : 3 кадра
Идентификатор кодека                     : avc1
Идентификатор кодека/Информация          : Advanced Video Coding
Продолжительность                        : 19 м.
Битрейт                                  : 231 Кбит/сек
Ширина                                   : 1280 пикселей
Высота                                   : 720 пикселей
Соотношение сторон                       : 16:9
Режим частоты кадров                     : Постоянный
Частота кадров                           : 30,000 кадров/сек
Стандарт вещания                         : NTSC
Цветовое пространство                    : YUV
Субдискретизация насыщенности            : 4:2:0
Битовая глубина                          : 8 бит
Тип развёртки                            : Прогрессивная
Бит/(Пиксели*Кадры)                      : 0.008
Размер потока                            : 32,1 Мбайт (64%)
Язык                                     : English
Дата кодирования                         : UTC 2015-04-11 09:34:08
Дата пометки                             : UTC 2015-04-11 09:34:08
Цветовой диапазон                        : Limited
Аудио
Идентификатор                            : 2
Формат                                   : AAC
Формат/Информация                        : Advanced Audio Codec
Профиль формата                          : LC
Идентификатор кодека                     : 40
Продолжительность                        : 19 м.
Вид битрейта                             : Переменный
Битрейт                                  : 126 Кбит/сек
Максимальный битрейт                     : 151 Кбит/сек
Каналы                                   : 2 канала
Расположение каналов                     : Front: L R
Частота                                  : 44,1 КГц
Метод сжатия                             : С потерями
Размер потока                            : 17,5 Мбайт (35%)
Язык                                     : English
Дата кодирования                         : UTC 2015-04-11 09:34:08
Дата пометки                             : UTC 2015-04-11 09:34:08
Скриншоты:

[Цитировать]



Показать сообщения:    

Текущее время: 07-Дек 15:31

Часовой пояс: UTC + 3


Вы не можете начинать темы
Вы не можете отвечать на сообщения
Вы не можете редактировать свои сообщения
Вы не можете удалять свои сообщения
Вы не можете голосовать в опросах
Вы не можете прикреплять файлы к сообщениям
Вы не можете скачивать файлы

!ВНИМАНИЕ!
Сайт не предоставляет электронные версии произведений, а занимается лишь коллекционированием и каталогизацией ссылок, присылаемых и публикуемых на форуме нашими читателями. Если вы являетесь правообладателем какого-либо представленного материала и не желаете, чтобы ссылка на него находилась в нашем каталоге, свяжитесь с нами, и мы незамедлительно удалим ее. Файлы для обмена на трекере предоставлены пользователями сайта, и администрация не несет ответственности за их содержание. Просьба не заливать файлы, защищенные авторскими правами, а также файлы нелегального содержания!