[ Сегодня идет свободное скачивание без начисления Download ]


Статистика раздачи
Нет
 
   
 
Top  
 
 
Школа современных технологий | Среда знаний. С++ выход из лабиринта (2015) PCRec [H.264]- Автор (режиссер): Алексей Захаренков
Жанр: Программирование, С++
Доп. материалы: Есть
Описание:
Данный семинар будет интересен вам, если вы уже имели дело с языком программирования Си/С++, умеете работать с массивами и функциями, знаете о структурах, а теперь хотите сделать первый шаг в сторону программирования оконных приложений под Windows на С++ и/или познакомиться с применением не самых элементарных алгоритмов на практике!
Вы узнаете, как создавать оконные приложения на языке С++ под Windows без использования сторонних библиотек и как рисовать в окне с помощью изображений в BMP-формате. После этого вы сможете сделать визуализацию и анимацию игр наподобие Тетриса или Сокобана. Также вы научитесь искать выход из лабиринта с помощью алгоритма поиска в глубину.
Продолжительность: 02:31:00
Качество видео: PCRec
Видео: AVC/H.264, 1364x768, ~294-322 kbps
Аудио: AAC, 2 ch, 126 kbps, VBR

Содержание семинара:

Создаём каркас оконного приложения под Windows
[Windows API]
Рисуем лабиринт битмэпами
[тип данных HBITMAP]
Ищем выход из лабиринта алгоритмом поиска в глубину
[DFS, Depth-First Search]
Создаём анимацию с помощью таймера
[событие WM_TIMER]

Mediainfo:

Общее
Полное имя                               : C:\С++ выход из лабиринта - 2015\1.mp4
Формат                                   : MPEG-4
Профиль формата                          : Base Media / Version 2
Идентификатор кодека                     : mp42
Размер файла                             : 196 Мбайт
Продолжительность                        : 1 ч. 4 м.
Режим общего битрейта                    : Переменный
Общий поток                              : 423 Кбит/сек
Дата кодирования                         : UTC 2015-05-26 07:01:24
Дата пометки                             : UTC 2015-05-26 07:01:24
Видео
Идентификатор                            : 1
Формат                                   : AVC
Формат/Информация                        : Advanced Video Codec
Профиль формата                          : Baseline@L3.2
Параметр CABAC формата                   : Нет
Параметр ReFrames формата                : 3 кадра
Идентификатор кодека                     : avc1
Идентификатор кодека/Информация          : Advanced Video Coding
Продолжительность                        : 1 ч. 4 м.
Битрейт                                  : 294 Кбит/сек
Ширина                                   : 1364 пикселя
Высота                                   : 768 пикселей
Соотношение сторон                       : 16:9
Режим частоты кадров                     : Постоянный
Частота кадров                           : 30,000 кадров/сек
Стандарт вещания                         : NTSC
Цветовое пространство                    : YUV
Субдискретизация насыщенности            : 4:2:0
Битовая глубина                          : 8 бит
Тип развёртки                            : Прогрессивная
Бит/(Пиксели*Кадры)                      : 0.009
Размер потока                            : 137 Мбайт (70%)
Язык                                     : English
Дата кодирования                         : UTC 2015-05-26 07:01:26
Дата пометки                             : UTC 2015-05-26 07:01:26
Цветовой диапазон                        : Limited
Аудио
Идентификатор                            : 2
Формат                                   : AAC
Формат/Информация                        : Advanced Audio Codec
Профиль формата                          : LC
Идентификатор кодека                     : 40
Продолжительность                        : 1 ч. 4 м.
Вид битрейта                             : Переменный
Битрейт                                  : 126 Кбит/сек
Максимальный битрейт                     : 173 Кбит/сек
Каналы                                   : 2 канала
Расположение каналов                     : Front: L R
Частота                                  : 44,1 КГц
Метод сжатия                             : С потерями
Размер потока                            : 58,3 Мбайт (30%)
Язык                                     : English
Дата кодирования                         : UTC 2015-05-26 07:01:26
Дата пометки                             : UTC 2015-05-26 07:01:26
Общее
Полное имя                               : C:\С++ выход из лабиринта - 2015\2.mp4
Формат                                   : MPEG-4
Профиль формата                          : Base Media / Version 2
Идентификатор кодека                     : mp42
Размер файла                             : 277 Мбайт
Продолжительность                        : 1 ч. 26 м.
Режим общего битрейта                    : Переменный
Общий поток                              : 451 Кбит/сек
Дата кодирования                         : UTC 2015-05-26 05:00:42
Дата пометки                             : UTC 2015-05-26 05:00:42
Видео
Идентификатор                            : 1
Формат                                   : AVC
Формат/Информация                        : Advanced Video Codec
Профиль формата                          : Baseline@L3.2
Параметр CABAC формата                   : Нет
Параметр ReFrames формата                : 3 кадра
Идентификатор кодека                     : avc1
Идентификатор кодека/Информация          : Advanced Video Coding
Продолжительность                        : 1 ч. 26 м.
Битрейт                                  : 322 Кбит/сек
Ширина                                   : 1364 пикселя
Высота                                   : 768 пикселей
Соотношение сторон                       : 16:9
Режим частоты кадров                     : Постоянный
Частота кадров                           : 30,000 кадров/сек
Стандарт вещания                         : NTSC
Цветовое пространство                    : YUV
Субдискретизация насыщенности            : 4:2:0
Битовая глубина                          : 8 бит
Тип развёртки                            : Прогрессивная
Бит/(Пиксели*Кадры)                      : 0.010
Размер потока                            : 198 Мбайт (71%)
Язык                                     : English
Дата кодирования                         : UTC 2015-05-26 05:00:44
Дата пометки                             : UTC 2015-05-26 05:00:44
Цветовой диапазон                        : Limited
Аудио
Идентификатор                            : 2
Формат                                   : AAC
Формат/Информация                        : Advanced Audio Codec
Профиль формата                          : LC
Идентификатор кодека                     : 40
Продолжительность                        : 1 ч. 26 м.
Продолжительность оригинала              : 1 ч. 26 м.
Вид битрейта                             : Переменный
Битрейт                                  : 126 Кбит/сек
Максимальный битрейт                     : 168 Кбит/сек
Каналы                                   : 2 канала
Расположение каналов                     : Front: L R
Частота                                  : 44,1 КГц
Метод сжатия                             : С потерями
Размер потока                            : 77,4 Мбайт (28%)
Размер потока оригинала                  : 77,4 Мбайт (28%)
Язык                                     : English
Дата кодирования                         : UTC 2015-05-26 05:00:45
Дата пометки                             : UTC 2015-05-26 05:00:45
Скриншоты:

[Цитировать]



Показать сообщения:    

Текущее время: 09-Дек 01:04

Часовой пояс: UTC + 3


Вы не можете начинать темы
Вы не можете отвечать на сообщения
Вы не можете редактировать свои сообщения
Вы не можете удалять свои сообщения
Вы не можете голосовать в опросах
Вы не можете прикреплять файлы к сообщениям
Вы не можете скачивать файлы

!ВНИМАНИЕ!
Сайт не предоставляет электронные версии произведений, а занимается лишь коллекционированием и каталогизацией ссылок, присылаемых и публикуемых на форуме нашими читателями. Если вы являетесь правообладателем какого-либо представленного материала и не желаете, чтобы ссылка на него находилась в нашем каталоге, свяжитесь с нами, и мы незамедлительно удалим ее. Файлы для обмена на трекере предоставлены пользователями сайта, и администрация не несет ответственности за их содержание. Просьба не заливать файлы, защищенные авторскими правами, а также файлы нелегального содержания!