[ Сегодня идет свободное скачивание без начисления Download ]


Статистика раздачи
Качаю: [ 2 ]
Скачал: [ 2 ]
 
   
 
Top  
 
 
SEO + Дорвеи + Приватная лекция!--
  • Год выпуска: 2015
  • Страна: Россия
  • Тематика: Заработок
  • Тип материала: Обучающее видео
  • Продолжительность: ~9 часов
  • Авторы: Domenic
  • Язык: Русский
    Описание:
    Инновационные методики по выводу запросов в ТОП и Заработку в Интернете. Новый Курс от Domenic, опыт работы более 14 лет, более 7 500 клиентов! Данный Курс не просто поможет вывести ваши запросы в ТОП поисковых системах Яндекс и Google за 10-14 суток, но и научит Вас зарабатывать от $$10 000 — 30 000 в месяц в Буржунете практически на автомате.

    Содержание

    Прослушав курс, Вы сможете:
    ● Выводить запросы в ТОП без гирь
    ● Подбирать тематические запросы
    ● Выводить сайты в топ за 10-14 суток
    ● Зарабатывать в Буржунете $$10 000 — 30 000 в месяц
    ● Создадите полноценный бизнес на автомате
    Что вы получите:
    ● Заработок БЕЗ вложений
    ● Бесплатный саппорт, Группа более 200-т человек
    ● Более 15 лет работы в Интернете
    ● Новые методики по выводу запросов в ТОП и Заработку
    ● Вы увидете результат уже через 10-14 суток
    ● Пошаговая инструкция: четкий план начала успешной работы в Интернете
    ● Результат уже через 7 дней: вы получите свои первые деньги уже через неделю

    Краткое содержание:

    Палим Фишки вывода запросов в ТОП Гугл
    ● Начало. Выбираем тематику, по которой будем работать. Новостник или малостраничник!? Разные подходы к работе!
    ● Основные аспекты, на которые поисковой бот обращает внимания
    ● Подбираем нужный шаблон. На каком движке лучше работать!? Как подобрать нужный шаблон. Рип шаблона, правда или миф для бота!?
    ● Подбор запросов для продвижения. Короткие и длинные запросы, в чем разница? Как подобрать!? Отбор продающих запросов
    ● Подбираем нужный текст. Где взять его взять!? Структура текста, как важнейший элемент
    ● Серое продвижение для малостраничных сайтов. С чего начать?
    ● Метод подбора запросов и создание из них уникального текста
    ● Как правильно вшить текст в страницу
    ● Наращивание ссылочной массы, стоит ли покупать ссылки!? "Минусовки" или как Яндекс в очередной раз пытается удивить ВебМастеров
    Дорное подвижение:
    ● Сколько оптимально делать страниц у Дорвея?
    ● На каком шаблоне лучше делать дорвей?
    ● Уникальный текст для Дорвея
    ● Быстрый топ по Google
    ● Наращивание ссылочной массы
    ● Поднимаем свою сетку сайтов. Гугл отменил PR — это хорошо или плохо!?
    Что учитывает Поисковой Бот:
    ● Текст + (грамотный текст), заголовок, дескрипшен, кеи......
    ● Яндекс будет немного позже
    ● Фотографии = минус...
    ● МикроРазметка сайта -= минус — НО Шаблон!
    ● Перелинковка — слаженность статей
    ● Ссылочная масса — вопрос, какая!?
    ● Скорость загрузки сайта — !? Я не заметил разницы
    ● Соц. Сети = минус
    ● Карта сайта — +- зависит от сайта
    ● Робот ТХТ — минус
    ● Контекстная Реклама — минус
    ● отказа — минус
    ● Поведенческие Факторы — минус
    ● Битые ссылки — минус
    ● Ссылки сквозняки
    Вопросы и план действия от пользователей:
    ● Текст нужен только на главной или на всех страницах?
    ● Где ставить ссылки и какие!?
    ● С каким PR брать сайты!?
    ● Как загонять в индекс такие сайты?
    ● Сквозные ссылки, сколько делать страниц на Дропе!?
    ● Ссылочная масса
    -
    -
    • Качество: PCRec
    • Формат: MP4
    • Видео кодек: MPEG-4
    • Аудио кодек: MP3
    • Видео: MPEG-4 Visual, 1344x650, 30.000 fps, 972 Kbps
    • Аудио: MP3, 44,1 Hz, 2ch, 128 kbps
    --

    MediaInfo

    Общее
    Полное имя : G:\R.G. Мастер-Класс\SEO + Дорвеи + Приватная лекция! (2015)\лекция 1\2.mp4
    Формат : MPEG-4
    Профиль формата : Base Media
    Идентификатор кодека : isom
    Размер файла : 237 Мбайт
    Продолжительность : 24 м.
    Режим общего битрейта : Постоянный
    Общий поток : 1332 Кбит/сек
    Программа кодирования : Lavf56.15.102
    Видео
    Идентификатор : 1
    Формат : MPEG-4 Visual
    Профиль формата : Simple@L1
    Параметр BVOP формата : Нет
    Параметр QPel формата : Нет
    Параметр GMC формата : Без точки перехода
    Параметр матрицы формата : Default (H.263)
    Идентификатор кодека : 20
    Продолжительность : 24 м.
    Вид битрейта : Постоянный
    Битрейт : 1198 Кбит/сек
    Ширина : 1344 пикселя
    Высота : 650 пикселей
    Соотношение сторон : 2,068
    Режим частоты кадров : Переменный
    Частота кадров : 29,970 кадров/сек
    Минимальная частота кадров : 1,875 кадра/сек
    Максимальная частота кадров : 30,000 кадров/сек
    Цветовое пространство : YUV
    Субдискретизация насыщенности : 4:2:0
    Битовая глубина : 8 бит
    Тип развёртки : Прогрессивная
    Метод сжатия : С потерями
    Бит/(Пиксели*Кадры) : 0.046
    Размер потока : 213 Мбайт (90%)
    Библиотека кодирования : Lavc56.13.100
    Аудио
    Идентификатор : 2
    Формат : MPEG Audio
    Версия формата : Version 1
    Профиль формата : Layer 3
    Режим : Joint stereo
    Расширение режима : MS Stereo
    Идентификатор кодека : 6B
    Продолжительность : 24 м.
    Вид битрейта : Постоянный
    Битрейт : 128 Кбит/сек
    Каналы : 2 канала
    Частота : 44,1 КГц
    Метод сжатия : С потерями
    Размер потока : 22,8 Мбайт (10%)
    Библиотека кодирования : LAME3.99.5ЄЄЄЄЄЄЄЂ

    Скриншоты:

[Цитировать]



Показать сообщения:    

Текущее время: 24-Фев 08:59

Часовой пояс: UTC + 3


Вы не можете начинать темы
Вы не можете отвечать на сообщения
Вы не можете редактировать свои сообщения
Вы не можете удалять свои сообщения
Вы не можете голосовать в опросах
Вы не можете прикреплять файлы к сообщениям
Вы не можете скачивать файлы

!ВНИМАНИЕ!
Сайт не предоставляет электронные версии произведений, а занимается лишь коллекционированием и каталогизацией ссылок, присылаемых и публикуемых на форуме нашими читателями. Если вы являетесь правообладателем какого-либо представленного материала и не желаете, чтобы ссылка на него находилась в нашем каталоге, свяжитесь с нами, и мы незамедлительно удалим ее. Файлы для обмена на трекере предоставлены пользователями сайта, и администрация не несет ответственности за их содержание. Просьба не заливать файлы, защищенные авторскими правами, а также файлы нелегального содержания!