[ Сегодня идет свободное скачивание без начисления Download ]


Статистика раздачи
Нет
 
   
 
Top  
 
 
Название: Правдивая история
Оригинальное название: True Story
Год выпуска: 2015
Жанр: Триллер, драма, детектив
Режиссер: Руперт Гулд
В ролях: Джона Хилл, Джеймс Франко, Фелисити Джонс, Мария Диззия, Итэн Сапли, Конор Кикот, Шарлотта Дрисколл, Стелла Рэй Пэйн, Роберт Джон Бёрк, Байрон Дженнингс
О фильме: История взаимоотношений журналиста Майкла Финкеля и убийцы, разыскиваемого ФБР, по имени Кристиан Лонго, который много лет скрывался за пределами США под именем Финкеля.

Выпущено: США, New Regency Pictures, Plan B Entertainment, Regency Enterprises
Продолжительность: 01:39:26
Перевод: Любительский многоголосый
Субтитры: Английские
Качество: BDRip (1080p)
Видео: MPEG-4 AVC, 15682 Кбит/с, 1920x1038
Аудио #1: Русский (AC3, 6 ch, 640 Кбит/с)
Аудио #2: Английский (AC3, 6 ch, 448 Кбит/с)

МедиаИнфо

Формат : Matroska
Версия формата : Version 2
Размер файла : 11,6 Гбайт
Продолжительность : 1 ч. 39 м.
Общий поток : 16,8 Мбит/сек
Название фильма : ~V ad~
Дата кодирования : UTC 2015-09-20 04:55:18
Программа кодирования : mkvmerge v6.5.0 ('Isn't she lovely') built on Oct 20 2013 12:50:05
Библиотека кодирования : libebml v1.3.0 + libmatroska v1.4.1
Видео
Идентификатор : 1
Формат : AVC
Формат/Информация : Advanced Video Codec
Профиль формата : High@L4.1
Параметр CABAC формата : Да
Параметр ReFrames формата : 4 кадра
Идентификатор кодека : V_MPEG4/ISO/AVC
Продолжительность : 1 ч. 39 м.
Битрейт : 15,7 Мбит/сек
Ширина : 1920 пикселей
Высота : 1038 пикселей
Соотношение сторон : 1,85:1
Режим частоты кадров : Постоянный
Частота кадров : 23,976 кадра/сек
Цветовое пространство : YUV
Субдискретизация насыщенности : 4:2:0
Битовая глубина : 8 бит
Тип развёртки : Прогрессивная
Бит/(Пиксели*Кадры) : 0.328
Размер потока : 10,7 Гбайт (92%)
Заголовок : ~V~
Библиотека кодирования : x264 core 142 r0+4281 a3bf0d5 Test [8-bit@all X86_64]
Настройки программы : cabac=1 / ref=4 / deblock=1:-3:-3 / analyse=0x3:0x133 / me=umh / subme=11 / psy=1 / fade_compensate=0.00 / psy_rd=1.05:0.05 / mixed_ref=1 / me_range=32 / chroma_me=1 / trellis=2 / 8x8dct=1 / cqm=0 / deadzone=21,11 / fast_pskip=0 / chroma_qp_offset=-3 / threads=12 / lookahead_threads=1 / sliced_threads=0 / nr=0 / decimate=0 / interlaced=0 / bluray_compat=0 / constrained_intra=0 / fgo=0 / bframes=10 / b_pyramid=2 / b_adapt=2 / b_bias=0 / direct=3 / weightb=1 / open_gop=0 / weightp=2 / keyint=240 / keyint_min=23 / scenecut=40 / intra_refresh=0 / rc=2pass / mbtree=0 / bitrate=15682 / ratetol=1.0 / qcomp=0.60 / qpmin=0:0:0 / qpmax=69:69:69 / qpstep=4 / cplxblur=20.0 / qblur=0.5 / ip_ratio=1.40 / pb_ratio=1.30 / aq=4:0.90 / aq-sensitivity=11.00 / aq-factor=1.00:1.00:1.00 / aq2=1:0.75 / aq2-sensitivity=10.00 / aq2-factor=1.00:1.00:1.00 / aq3=1:[0.60:0.60]:[0.60:0.60]:[0.60:0.60]:[0.60:0.60] / aq3-sensitivity=9.00 / aq3-factor=[1.00:1.00]:[1.00:1.00]:[1.00:1.00] / aq3-boundary=192:64:24
Язык : English
Default : Да
Forced : Нет
Аудио #1
Идентификатор : 2
Формат : AC-3
Формат/Информация : Audio Coding 3
Расширение режима : CM (complete main)
Параметр Endianness формата : Big
Идентификатор кодека : A_AC3
Продолжительность : 1 ч. 39 м.
Вид битрейта : Постоянный
Битрейт : 640 Кбит/сек
Каналы : 6 каналов
Расположение каналов : Front: L C R, Side: L R, LFE
Частота : 48,0 КГц
Метод сжатия : С потерями
Размер потока : 455 Мбайт (4%)
Заголовок : Русский (MVO)
Язык : Russian
Default : Да
Forced : Да
Аудио #2
Идентификатор : 3
Формат : AC-3
Формат/Информация : Audio Coding 3
Расширение режима : CM (complete main)
Параметр Endianness формата : Big
Идентификатор кодека : A_AC3
Продолжительность : 1 ч. 39 м.
Вид битрейта : Постоянный
Битрейт : 448 Кбит/сек
Каналы : 6 каналов
Расположение каналов : Front: L C R, Side: L R, LFE
Частота : 48,0 КГц
Метод сжатия : С потерями
Размер потока : 319 Мбайт (3%)
Заголовок : Английский
Язык : English
Default : Нет
Forced : Нет
Текст #1
Идентификатор : 4
Формат : UTF-8
Идентификатор кодека : S_TEXT/UTF8
Идентификатор кодека/Информация : UTF-8 Plain Text
Язык : English
Default : Нет
Forced : Нет
Текст #2
Идентификатор : 5
Формат : UTF-8
Идентификатор кодека : S_TEXT/UTF8
Идентификатор кодека/Информация : UTF-8 Plain Text
Заголовок : SDH
Язык : English
Default : Нет
Forced : Нет
Меню
00:00:00.000 : en:Chapter 01
00:04:20.551 : en:Chapter 02
00:06:41.192 : en:Chapter 03
00:09:06.212 : en:Chapter 04
00:13:15.920 : en:Chapter 05
00:16:38.956 : en:Chapter 06
00:17:58.911 : en:Chapter 07
00:19:13.193 : en:Chapter 08
00:25:32.322 : en:Chapter 09
00:29:11.124 : en:Chapter 10
00:32:44.128 : en:Chapter 11
00:36:53.336 : en:Chapter 12
00:38:08.661 : en:Chapter 13
00:39:54.225 : en:Chapter 14
00:44:28.791 : en:Chapter 15
00:46:45.302 : en:Chapter 16
00:49:24.962 : en:Chapter 17
00:50:57.763 : en:Chapter 18
00:53:13.982 : en:Chapter 19
00:58:07.192 : en:Chapter 20
01:00:57.945 : en:Chapter 21
01:05:11.282 : en:Chapter 22
01:07:04.979 : en:Chapter 23
01:16:57.779 : en:Chapter 24
01:22:06.379 : en:Chapter 25
01:25:37.757 : en:Chapter 26
01:30:48.401 : en:Chapter 27
01:33:55.671 : en:Chapter 28

х264

x264 [info]: frame I:982 Avg QP:17.18 size:266892
x264 [info]: frame P:24006 Avg QP:19.25 size:131385
x264 [info]: frame B:118053 Avg QP:21.01 size: 70112

Скриншоты

Сэмпл
Релиз от:

[Цитировать]



Показать сообщения:    

Текущее время: 10-Дек 00:21

Часовой пояс: UTC + 3


Вы не можете начинать темы
Вы не можете отвечать на сообщения
Вы не можете редактировать свои сообщения
Вы не можете удалять свои сообщения
Вы не можете голосовать в опросах
Вы не можете прикреплять файлы к сообщениям
Вы не можете скачивать файлы

!ВНИМАНИЕ!
Сайт не предоставляет электронные версии произведений, а занимается лишь коллекционированием и каталогизацией ссылок, присылаемых и публикуемых на форуме нашими читателями. Если вы являетесь правообладателем какого-либо представленного материала и не желаете, чтобы ссылка на него находилась в нашем каталоге, свяжитесь с нами, и мы незамедлительно удалим ее. Файлы для обмена на трекере предоставлены пользователями сайта, и администрация не несет ответственности за их содержание. Просьба не заливать файлы, защищенные авторскими правами, а также файлы нелегального содержания!