[ Сегодня идет свободное скачивание без начисления Download ]


Статистика раздачи
Нет
 
   
 
Top  
 
 
Информация о фильме
Название: Особо опасны
Оригинальное название: Savages
Год выхода: 2012
Жанр: Триллер, драма, криминал
Режиссер: Оливер Стоун
В ролях: Тейлор Китч, Блейк Лайвли, Аарон Тейлор-Джонсон, Джон Траволта, Бенисио Дель Торо, Сальма Хайек, Эмиль Хирш, Демиан Бишир, Антонио Джарамилло, Хоакин Косио, Яна Бенкер, Кандра Дочерти, Патрик Фоурми, Гари Стретч, Диего Катаньо, Ши Уигхэм, Каришма Ахлувалиа, Джонатан Карр, Джэйк МакЛафлин, Александр Рэйт, Энтони Кутоло, Курт Коллинз, Эмбер Диксон Бреннер, Леонард Робертс, Джоэль Мур, Али Вонг, Сала Бэйкер, Сандра Эчеверриа, Тара Стоун, Мэттью Сальдивар, Шон Стоун, Вильфредо Лопез, Марко Моралес, Люсинда Серрано, Чарльз Хогк, Сэм Медина, Бен Брэй, Гонсало Менендес, Майя Меркер, Доннабелль Мортель, Тревор Донован, Лина Дэйли
О фильме:
Молодые миллионеры Бен и Чон ведут дела на побережье Калифорнии. Бен — выдающийся ботаник и талантливый бизнесмен, Чон — мастер возвращения долгов и борьбы с конкурентами. В их работе много сложных моментов, ведь они выращивают лучшую в мире траву. Особо серьезные проблемы решает знакомый агент ФБР. Но с одной не сможет помочь даже он. Сверхприбыльным бизнесом заинтересовался мексиканский картель. Его возглавляет прекрасная Елена, и она нашла главную слабость друзей — и Бен, и Чон принадлежат одной девушке. Ради прелестной О. они готовы на все. Любовь делает нас особо опасными.

Страна: США, Ixtlan Corporation, Onda Entertainment, Relativity Media
Продолжительность: 02:21:10
Перевод: Авторский одноголосый - Дасевич, Авторский одноголосый - Юрий Сербин
Субтитры: Русские
Дата релиза: 13.12.2012
Файл
Кодек: H.264
Качество: BDRip (AVC) (Blu-Ray Remux (1080p))
Видео: MPEG-4 AVC, 2562 Kбит/с, 1024x426, 23.976 кадр/с
Звук: Русский (AC3, 6 ch, 448 Кбит/c), (AC3, 2 ch, 192 Кбит/c), английский (AC3, 6 ch, 448 Кбит/c)

MediaInfo

Общее
Уникальный идентификатор : 250715186478195096075018051596372849517 (0xBC9DFD0F5353FB199F63D425A6BAB36D)
Полное имя : G:Osobo.opasny.2012.x264.BDRip.(AVC).ExKinoRay.mkv
Формат : Matroska
Версия формата : Version 2
Размер файла : 3,60 Гбайт
Продолжительность : 2 ч. 21 м.
Общий поток : 3649 Кбит/сек
Название фильма : Osobo.opasny.2012.x264.BDRip.(AVC).ExKinoRay
Дата кодирования : UTC 2012-12-13 20:16:52
Программа кодирования : mkvmerge v4.0.0 ('The Stars were mine') сборка от Jun 6 2010 16:18:42
Библиотека кодирования : libebml v1.0.0 + libmatroska v1.0.0
Видео
Идентификатор : 1
Формат : AVC
Формат/Информация : Advanced Video Codec
Профиль формата : High@L4.1
Параметр CABAC формата : Да
Параметр ReFrames формата : 8 кадров
Идентификатор кодека : V_MPEG4/ISO/AVC
Продолжительность : 2 ч. 21 м.
Битрейт : 2562 Кбит/сек
Ширина : 1024 пикселя
Высота : 426 пикселей
Соотношение сторон : 2,40:1
Частота кадров : 23,976 кадра/сек
Цветовое пространство : YUV
Субдискретизация насыщенности : 4:2:0
Битовая глубина : 8 бит
Тип развёртки : Прогрессивная
Бит/(Пиксели*Кадры) : 0.245
Размер потока : 2,45 Гбайт (68%)
Заголовок : Rip by Enigma-Vladislav71
Библиотека кодирования : x264 core 92 r1510 33d382a
Настройки программы : cabac=1 / ref=8 / deblock=1:-2:-2 / analyse=0x3:0x133 / me=umh / subme=10 / psy=1 / psy_rd=1.00:0.00 / mixed_ref=1 / me_range=48 / chroma_me=1 / trellis=2 / 8x8dct=1 / cqm=0 / deadzone=21,11 / fast_pskip=0 / chroma_qp_offset=-2 / threads=3 / sliced_threads=0 / nr=0 / decimate=0 / interlaced=0 / constrained_intra=0 / bframes=8 / b_pyramid=2 / b_adapt=2 / b_bias=0 / direct=3 / wpredb=1 / wpredp=2 / keyint=240 / keyint_min=23 / scenecut=40 / intra_refresh=0 / rc=2pass / mbtree=0 / bitrate=2562 / ratetol=1.0 / qcomp=0.60 / qpmin=10 / qpmax=51 / qpstep=4 / cplxblur=20.0 / qblur=0.5 / ip_ratio=1.40 / pb_ratio=1.30 / aq=1:1.00
Язык : English
Default : Нет
Forced : Нет
Аудио #1
Идентификатор : 2
Формат : AC-3
Формат/Информация : Audio Coding 3
Расширение режима : CM (complete main)
Идентификатор кодека : A_AC3
Продолжительность : 2 ч. 21 м.
Вид битрейта : Постоянный
Битрейт : 448 Кбит/сек
Каналы : 6 каналов
Расположение каналов : Front: L C R, Side: L R, LFE
Частота : 48,0 КГц
Битовая глубина : 16 бит
Метод сжатия : С потерями
Размер потока : 452 Мбайт (12%)
Заголовок : профессиональный одноголосый
Язык : Russian
Default : Да
Forced : Нет
Аудио #2
Идентификатор : 3
Формат : AC-3
Формат/Информация : Audio Coding 3
Расширение режима : CM (complete main)
Идентификатор кодека : A_AC3
Продолжительность : 2 ч. 21 м.
Вид битрейта : Постоянный
Битрейт : 192 Кбит/сек
Каналы : 2 канала
Расположение каналов : Front: L R
Частота : 48,0 КГц
Битовая глубина : 16 бит
Метод сжатия : С потерями
Размер потока : 194 Мбайт (5%)
Заголовок : Сербин
Язык : Russian
Default : Нет
Forced : Нет
Аудио #3
Идентификатор : 4
Формат : AC-3
Формат/Информация : Audio Coding 3
Расширение режима : CM (complete main)
Идентификатор кодека : A_AC3
Продолжительность : 2 ч. 21 м.
Вид битрейта : Постоянный
Битрейт : 448 Кбит/сек
Каналы : 6 каналов
Расположение каналов : Front: L C R, Side: L R, LFE
Частота : 48,0 КГц
Битовая глубина : 16 бит
Метод сжатия : С потерями
Размер потока : 452 Мбайт (12%)
Язык : English
Default : Нет
Forced : Нет
Текст
Идентификатор : 5
Формат : UTF-8
Идентификатор кодека : S_TEXT/UTF8
Идентификатор кодека/Информация : UTF-8 Plain Text
Язык : Russian
Default : Нет
Forced : Нет
Меню
00:00:00.000 : en:Chapter 1
00:06:42.151 : en:Chapter 2
00:13:40.736 : en:Chapter 3
00:20:58.215 : en:Chapter 4
00:24:36.933 : en:Chapter 5
00:31:40.899 : en:Chapter 6
00:39:23.069 : en:Chapter 7
00:46:06.680 : en:Chapter 8
00:54:52.330 : en:Chapter 9
00:59:37.365 : en:Chapter 10
01:08:28.103 : en:Chapter 11
01:14:36.805 : en:Chapter 12
01:22:46.294 : en:Chapter 13
01:28:22.463 : en:Chapter 14
01:35:00.820 : en:Chapter 15
01:39:52.319 : en:Chapter 16
01:47:48.003 : en:Chapter 17
01:52:37.709 : en:Chapter 18
02:01:26.237 : en:Chapter 19
02:06:31.375 : en:Chapter 20
02:10:58.517 : en:Chapter 21
Семпл

Скриншоты

[Цитировать]



Показать сообщения:    

Текущее время: 10-Дек 02:08

Часовой пояс: UTC + 3


Вы не можете начинать темы
Вы не можете отвечать на сообщения
Вы не можете редактировать свои сообщения
Вы не можете удалять свои сообщения
Вы не можете голосовать в опросах
Вы не можете прикреплять файлы к сообщениям
Вы не можете скачивать файлы

!ВНИМАНИЕ!
Сайт не предоставляет электронные версии произведений, а занимается лишь коллекционированием и каталогизацией ссылок, присылаемых и публикуемых на форуме нашими читателями. Если вы являетесь правообладателем какого-либо представленного материала и не желаете, чтобы ссылка на него находилась в нашем каталоге, свяжитесь с нами, и мы незамедлительно удалим ее. Файлы для обмена на трекере предоставлены пользователями сайта, и администрация не несет ответственности за их содержание. Просьба не заливать файлы, защищенные авторскими правами, а также файлы нелегального содержания!