[ Today is free to download without increasing Download ]

DL-List and Torrent activity
Информация о фильме
Название: Весомое чувство
Год выхода: 2015
Жанр: Мелодрама
Режиссер: Алексей Карелин
В ролях: Елена Шилова (II), Татьяна Чердынцева, Владимир Фекленко, Александр Павлов (IV)
О фильме:
Любе слегка за тридцать. Она мила, обаятельна, добра, отличная хозяйка и кулинар. От счастливой и устроенной семейной жизни женщина полнеет, что перестает устраивать ее мужа Семена. В этом Люба убеждается, застав супруга в объятиях красотки модельной комплекции.
Страна: Россия
Студия: "Паламеда Продакшн", продюсерский центр "Фабула"
Продолжительность: 01:27:15
Перевод: Не требуется
Кодек: XviD
Качество: HDTVRip
Видео: 624x352 (1.77:1), 25 fps, XviD build 73 ~1055 kbps avg, 0.19 bit/pixel
Звук: 48 kHz, MPEG Layer 3, 2 ch, ~128.00 kbps avg
Субтитры: Отсутствуют


Complete name : D:Изготовление риповVesomoe.chuvstvo.2015.HDTVRip.shkiper.avi
Format : AVI
Format/Info : Audio Video Interleave
File size : 745 MiB
Duration : 1h 27mn
Overall bit rate : 1 194 Kbps
Writing application : VirtualDubMod | www.virtualdub-fr.org || (build 2550/release)
Writing library : VirtualDubMod build 2550/release
ID : 0
Format : MPEG-4 Visual
Format profile : Advanced Simple@L5
Format settings, BVOP : 1
Format settings, QPel : No
Format settings, GMC : No warppoints
Format settings, Matrix : Custom
Codec ID : XVID
Codec ID/Hint : XviD
Duration : 1h 27mn
Bit rate : 1 056 Kbps
Width : 624 pixels
Height : 352 pixels
Display aspect ratio : 16:9
Frame rate : 25.000 fps
Color space : YUV
Chroma subsampling : 4:2:0
Bit depth : 8 bits
Scan type : Progressive
Compression mode : Lossy
Bits/(Pixel*Frame) : 0.192
Stream size : 659 MiB (88%)
Writing library : XviD 73
ID : 1
Format : MPEG Audio
Format version : Version 1
Format profile : Layer 3
Mode : Joint stereo
Codec ID : 55
Codec ID/Hint : MP3
Duration : 1h 27mn
Bit rate mode : Constant
Bit rate : 128 Kbps
Channel(s) : 2 channels
Sampling rate : 48.0 KHz
Compression mode : Lossy
Stream size : 79.9 MiB (11%)
Alignment : Aligned on interleaves
Interleave, duration : 40 ms (1.00 video frame)
Interleave, preload duration : 504 ms
Writing library : LAME3.99r
Encoding settings : -m j -V 4 -q 2 -lowpass 17 -b 128



Топик был перенесен из форума Зарубежное кино (HD Video) в форум Российское / казахстанское кино

Display posts:    

Current time is: 26-Oct 14:13

All times are UTC + 3

You cannot post new topics in this forum
You cannot reply to topics in this forum
You cannot edit your posts in this forum
You cannot delete your posts in this forum
You cannot vote in polls in this forum
You cannot attach files in this forum
You cannot download files in this forum

The site does not give electronic versions of products, and is engaged only in a collecting and cataloguing of the references sent and published at a forum by our readers. If you are the legal owner of any submitted material and do not wish that the reference to it was in our catalogue, contact us and we shall immediately remove her. Files for an exchange on tracker are given by users of a site, and the administration does not bear the responsibility for their maintenance. The request to not fill in the files protected by copyrights, and also files of the illegal maintenance!