[ Сегодня идет свободное скачивание без начисления Download ]


Статистика раздачи
Нет
 
   
 
 
 
Информация о фильме
Оригинальное название: Последний из Магикян
Год выхода: 2013
Жанр: Комедия, ситком
Режиссер: Резо Гигинеишвили
В ролях: Грант Тохатян, Анна Ардова, Андрей Бурковский, Алина Гринберг, Луиза-Габриэла Бровина, Элен Касьяник
О фильме:
Карену Магикяну 45 лет. Он — глава семьи и отец трех дочерей. В этом возрасте люди уже не меняются. Он давно сформулировал законы и правила, по которым живет, и нарушать ничего не собирается. Ему-то самому кажется, что за последние 10-15 лет он ничуть не изменился, ни капельки не постарел. Более того — он считает себя вполне современным человеком, хотя у него мобильный телефон с черно-белым экраном и нет электронной почты.
Вот это, кстати, его раздражает особенно сильно — с чего все вокруг сходят с ума по этим гаджетам, айпэдам, айфонам. Почему младшая дочь, вернувшись из школы, сразу идет в интернет, а не поцеловать папу? «Общаться» — это же значит сидеть за столом, пить вино и разговаривать, а не пялиться в экран компьютера и портить себе глаза.

Страна: Россия
Студия: "ВБД Груп" при участие кинокомпании "Небо" по заказу СТС
Продолжительность: 60 х ~ 00:24:00
Перевод: Не требуется
Файл
Формат: MP4
Качество: WEB-DLRip | КПК
Видео: MPEG-4 AVC (x264), 640x360, ~500 kbps, 25.000 fps
Аудио: AAC LC, 48.0 KHz, 2 ch, 128 Kbps
Субтитры: Нет
Семпл

Скриншоты

MI

Complete name : E:KinoPosledniy.Iz.Magikyan.AVC.WEB-DLRip.KPK.GeneralfilmPosledniy.Iz.Magikyan.S03.2014.AVC.WEB-DLRip.KPK.GeneralfilmPosledniy.Iz.Magikyan.s03e10.2014.AVC.WEB-DLRip.KPK.Generalfilm.mp4
Format : MPEG-4
Format profile : Base Media
Codec ID : isom
File size : 111 MiB
Duration : 24mn 31s
Overall bit rate mode : Variable
Overall bit rate : 632 Kbps
Encoded date : UTC 2015-01-23 08:19:26
Tagged date : UTC 2015-01-23 08:19:26
Video
ID : 1
Format : AVC
Format/Info : Advanced Video Codec
Format profile : High@L4.1
Format settings, CABAC : Yes
Format settings, ReFrames : 8 frames
Codec ID : avc1
Codec ID/Info : Advanced Video Coding
Duration : 24mn 31s
Bit rate : 500 Kbps
Maximum bit rate : 1 882 Kbps
Width : 640 pixels
Height : 360 pixels
Display aspect ratio : 16:9
Frame rate mode : Constant
Frame rate : 25.000 fps
Color space : YUV
Chroma subsampling : 4:2:0
Bit depth : 8 bits
Scan type : Progressive
Bits/(Pixel*Frame) : 0.087
Stream size : 87.7 MiB (79%)
Writing library : x264 core 130 r2273 b3065e6
Encoding settings : cabac=1 / ref=8 / deblock=1:-2:-2 / analyse=0x3:0x133 / me=umh / subme=10 / psy=1 / psy_rd=1.00:0.00 / mixed_ref=1 / me_range=24 / chroma_me=1 / trellis=2 / 8x8dct=1 / cqm=0 / deadzone=21,11 / fast_pskip=1 / chroma_qp_offset=-2 / threads=12 / lookahead_threads=2 / sliced_threads=0 / nr=0 / decimate=0 / interlaced=0 / bluray_compat=0 / constrained_intra=0 / bframes=8 / b_pyramid=2 / b_adapt=2 / b_bias=0 / direct=3 / weightb=1 / open_gop=0 / weightp=2 / keyint=250 / keyint_min=126 / scenecut=40 / intra_refresh=0 / rc_lookahead=40 / rc=2pass / mbtree=1 / bitrate=500 / ratetol=1.0 / qcomp=0.60 / qpmin=0 / qpmax=69 / qpstep=4 / cplxblur=20.0 / qblur=0.5 / ip_ratio=1.40 / aq=1:1.00
Encoded date : UTC 2015-01-23 08:19:26
Tagged date : UTC 2015-01-23 08:19:28
Audio
ID : 2
Format : AAC
Format/Info : Advanced Audio Codec
Format profile : LC
Codec ID : 40
Duration : 24mn 31s
Bit rate mode : Variable
Bit rate : 128 Kbps
Maximum bit rate : 147 Kbps
Channel count : 2 channels
Channel positions : Front: L R
Sampling rate : 48.0 KHz
Compression mode : Lossy
Delay relative to video : 80ms
Stream size : 22.4 MiB (20%)
Encoded date : UTC 2015-01-23 08:19:28
Tagged date : UTC 2015-01-23 08:19:28
Релиз от:

[Цитировать]



Показать сообщения:    

Текущее время: 02-Дек 21:00

Часовой пояс: UTC + 3


Вы не можете начинать темы
Вы не можете отвечать на сообщения
Вы не можете редактировать свои сообщения
Вы не можете удалять свои сообщения
Вы не можете голосовать в опросах
Вы не можете прикреплять файлы к сообщениям
Вы не можете скачивать файлы

!ВНИМАНИЕ!
Сайт не предоставляет электронные версии произведений, а занимается лишь коллекционированием и каталогизацией ссылок, присылаемых и публикуемых на форуме нашими читателями. Если вы являетесь правообладателем какого-либо представленного материала и не желаете, чтобы ссылка на него находилась в нашем каталоге, свяжитесь с нами, и мы незамедлительно удалим ее. Файлы для обмена на трекере предоставлены пользователями сайта, и администрация не несет ответственности за их содержание. Просьба не заливать файлы, защищенные авторскими правами, а также файлы нелегального содержания!