[ Сегодня идет свободное скачивание без начисления Download ]


Статистика раздачи
Нет
 
   
 
Top  
 
 
-- Информация о фильме
Название: Земля будущего
Оригинальное название: Tomorrowland
Год выхода: 2015
Жанр: фантастика, боевик, детектив, приключения
Режиссер: Брэд Бёрд
В ролях: Джордж Клуни, Бритт Робертсон, Хью Лори, Рэффи Кэссиди, Тим МакГроу, Кэтрин Хан, Кигэн-Майкл Ки, Кристофер Бауэр, Томас Робинсон, Пирс Гэнон
О фильме: Когда в руки к молодой девушке, жаждущей новых приключений, попадает загадочный предмет, открывающий доступ в параллельную реальность, она вынуждена обратиться за помощью к циничному гению-изобретателю Фрэнку. Кейси должна убедить бывшего вундеркинда раскрыть ей тайну загадочного места, находящегося вне привычной реальности, известного как Земля будущего, и убедить Фрэнка вернуться туда, откуда его однажды изгнали…

Выпущено: США / Walt Disney Pictures, A113
Продолжительность: 02:10:19
Озвучивание: Дублированное [iTunes]
Файл
Формат: MKV
Качество: WEB-DLRip-AVC
Видео: ~1210 kb/s, 980x444
Аудио: AC3, 384 kb/s (6 ch)--

M/I

General
Unique ID : 334097906613593475284050576383416281729 (0xFB58EA90B2C47CA4133E955FA65D2A81)
Complete name : F:Земля будущего.(2015).WEB-DLRIP_AVC.[-=DoMiNo=-].mkv.mkv
Format : Matroska
Format version : Version 4 / Version 2
File size : 1.45 GiB
Duration : 2h 10mn
Overall bit rate : 1 598 Kbps
Movie name : Земля будущего
Writing application : XviD4PSP 7.0.170
Writing library : Lavf56.25.101
ORIGINAL_TITLE : Tomorrowland
DATE : 2015
GENRE : фантастика, боевик, детектив, приключения, семейный
ENCODING_INFO : MATROSKA,WEBM > MKV / H264 > X264 VBR-2P 1210kbps Custom / AC3 > COPY
SYNOPSIS : Когда в руки к молодой девушке, жаждущей новых приключений, попадает загадочный предмет, открывающий доступ в параллельную реальность, она вынуждена обратиться за помощью к циничному гению-изобретателю Фрэнку. Кейси должна убедить бывшего вундеркинда раскрыть ей тайну загадочного места, находящегося вне привычной реальности, известного как Земля будущего, и убедить Фрэнка вернуться туда, откуда его однажды изгнали…
ITUNEXTC : mpaa|PG|200|
ACTORS : Бритт Робертсон, Джордж Клуни, Рэффи Кэссиди, Хью Лори, Тим МакГроу, Кэтрин Хан, Кигэн-Майкл Ки, Кристофер Бауэр, Томас Робинсон, Пирс Гэнон, Диана Конопелько, Станислав Концевич, Анна Хасанова, Валерий Кухарешин, Виталий Такс, показать всех
DIRECTOR : Брэд Бёрд
PRODUCER : Брэд Бёрд, Джеффри Чернов, Дэймон Линделоф
WRITER : Дэймон Линделоф, Брэд Бёрд, Джефф Дженсен
COUNTRY : США, Испания
RATING : 6.399
IMDB_RATING : 6.60
Language : und
FILENAME : cover.png
Attachements : cover.png
Video
ID : 1
Format : AVC
Format/Info : Advanced Video Codec
Format profile : High@L4.1
Format settings, CABAC : Yes
Format settings, ReFrames : 12 frames
Codec ID : V_MPEG4/ISO/AVC
Duration : 2h 10mn
Bit rate : 1 210 Kbps
Width : 980 pixels
Height : 444 pixels
Display aspect ratio : 2.2:1
Frame rate mode : Constant
Frame rate : 23.976 fps
Color space : YUV
Chroma subsampling : 4:2:0
Bit depth : 8 bits
Scan type : Progressive
Bits/(Pixel*Frame) : 0.116
Stream size : 1.08 GiB (74%)
Writing library : x264 core 148 r2597M e86f3a1
Encoding settings : cabac=1 / ref=12 / deblock=1:-3:-3 / analyse=0x3:0x133 / me=umh / subme=11 / psy=1 / psy_rd=1.00:0.20 / mixed_ref=1 / me_range=32 / chroma_me=1 / trellis=2 / 8x8dct=1 / cqm=0 / deadzone=21,11 / fast_pskip=0 / chroma_qp_offset=-3 / threads=5 / lookahead_threads=1 / sliced_threads=0 / nr=0 / decimate=1 / interlaced=0 / bluray_compat=0 / constrained_intra=0 / bframes=11 / b_pyramid=2 / b_adapt=2 / b_bias=0 / direct=3 / weightb=1 / open_gop=0 / weightp=2 / keyint=230 / keyint_min=23 / scenecut=40 / intra_refresh=0 / rc=2pass / mbtree=0 / bitrate=1210 / ratetol=1.0 / qcomp=0.60 / qpmin=0 / qpmax=69 / qpstep=4 / cplxblur=20.0 / qblur=0.5 / ip_ratio=1.40 / pb_ratio=1.30 / aq=1:1.00
Language : English
Default : Yes
Forced : No
Color range : Limited
Color primaries : BT.709
Transfer characteristics : BT.709
Matrix coefficients : BT.709
Audio
ID : 2
Format : AC-3
Format/Info : Audio Coding 3
Mode extension : CM (complete main)
Format settings, Endianness : Big
Codec ID : A_AC3
Duration : 2h 10mn
Bit rate mode : Constant
Bit rate : 384 Kbps
Channel(s) : 6 channels
Channel positions : Front: L C R, Side: L R, LFE
Sampling rate : 48.0 KHz
Bit depth : 32 bits
Compression mode : Lossy
Stream size : 358 MiB (24%)
Language : Russian
Default : Yes
Forced : No
Menu
00:00:00.000 : :1
00:16:12.000 : :2
00:21:56.000 : :3
00:28:52.000 : :4
00:37:37.000 : :5
00:46:35.000 : :6
00:55:00.000 : :7
01:11:47.000 : :8
01:19:18.000 : :9
01:26:44.000 : :10
01:30:57.000 : :11
01:38:05.000 : :12
01:49:50.000 : :13
01:56:11.000 : :14
02:01:26.000 : :15
-- --

[Цитировать]



Показать сообщения:    

Текущее время: 10-Дек 00:19

Часовой пояс: UTC + 3


Вы не можете начинать темы
Вы не можете отвечать на сообщения
Вы не можете редактировать свои сообщения
Вы не можете удалять свои сообщения
Вы не можете голосовать в опросах
Вы не можете прикреплять файлы к сообщениям
Вы не можете скачивать файлы

!ВНИМАНИЕ!
Сайт не предоставляет электронные версии произведений, а занимается лишь коллекционированием и каталогизацией ссылок, присылаемых и публикуемых на форуме нашими читателями. Если вы являетесь правообладателем какого-либо представленного материала и не желаете, чтобы ссылка на него находилась в нашем каталоге, свяжитесь с нами, и мы незамедлительно удалим ее. Файлы для обмена на трекере предоставлены пользователями сайта, и администрация не несет ответственности за их содержание. Просьба не заливать файлы, защищенные авторскими правами, а также файлы нелегального содержания!