[ Сегодня идет свободное скачивание без начисления Download ]


Статистика раздачи
Буду качать: [ 4 ]
Качаю: [ 4 ]
Скачал: [ 21 ]
 
   
 
Top  
 
 
Алиса Катревич | Создание векторных иллюстраций для микростоков в Adobe Illustrator (2014-2015) PCRec - Автор (режиссер): Алиса Катревич
Жанр: Веб-дизайн, Adobe Illustrator
Описание:
В курс вошли 30 практических видеуроков, в которых раскрываются многие секреты и «фишки» простой и эффективной работы в Adobe Illustrator.
В каждом уроке понятным человеческим языком автор объясняет и наглядно показывает, как создавать в Adobe Illustrator графику различной сложности — от простейшей бесшовной текстуры до реалистического портрета. Никакой воды — всё исключительно по делу!
Нам было важно показать в курсе не только базовые приемы создания графики, но и те, которые используют профессиональные дизайнеры-иллюстраторы. В стандартные обучающие курсы их мало кто включает.
Но, самое главное, мы изначально решили создать не просто видеокурс, а практический тренинг, который бы в корне отличался от стандартных «коробочных» курсов.
Вы разберетесь во всех тонкостях редактора Adobe Illustrator. Больше он не будет для вас «темным лесом»!
Вы научитесь создавать красивую и профессиональную векторную графику.
Вы получите необходимые знания о том, как устроены микростоки, как подготавливать для них файлы, какие иллюстрации на них наиболее востребованы, как прописывать ключевые слова для файлов перед отправкой на микростоки и многое другое.
Вы овладеете многочисленными техниками создания векторной графики и приемами профессиональной работы в Adobe Illustrator.
Продолжительность: 11:30:23
Качество видео: PCRec
Видео: AVC/H.264, 1280x720, ~261-890 kbps
Аудио: AAC, 2 ch, 147-160 kbps, VBR

Содержание курса:

Урок 01. Введение.
Урок 02. Форматы EPS 8 и EPS 10.
Урок 03. Создание простых векторных иллюстраций для EPS 8.
Урок 04. Использование инструмента Blob Brush для формата EPS 8.
Урок 05. Создание плоских иконок (стиль flat).
Урок 06. Создание иконок в стиле пиксель-арт.
Урок 07. Использование инструмента Blend Tool.
Урок 08. Создание абстрактного фона. Blend Tool.
Урок 09. Создание иллюстрации с текстом для микростоков.
Урок 10. Создание глянцевого шрифта.
Урок 11. Создание сложной иллюстрации.
Урок 12. Режимы наложения, градиенты и эффекты.
Урок 13. Создание ретро-картинки.
Урок 14. «Рисование» инструментом PenTool.
Урок 15. Создание дизайна для бизнеса. Ч.1.
Урок 15. Создание дизайна для бизнеса. Ч.2.
Урок 16. Создание дизайна для бизнеса. Ч.3.
Урок 17. Создание иллюстрации с эффектом бумаги. Стрекоза.
Урок 18. Техника полигональной графики.
Урок 19. Автоматическая трассировка изображения. Ч.1.
Урок 20. Автоматическая трассировка изображения. Ч.2.
Урок 21. Автоматическая трассировка изображения. Ч.3.
Урок 22. Создание контурных иконок инструментом Blob Brush.
Урок 23. Создание абстрактного фона с помощью стандартных кистей.
Урок 24. Работаем с инструментом Mesh Tool.
Урок 25. Создание комплекта дизайнерских кистей.
Урок 26. Использование 3D эффекта в Adobe Illustrator.
Урок 27. Создание иллюстрации в стиле поп-арт.
Урок 28. Работа со стандартными художественными кистями.
Урок 29. Создание новых кистей при помощи Pattern Brush.
Урок 30. Применение кистей, созданных в процессе работы.
Доп. уроки:
Доп. урок 01.
Доп. урок 02.
Доп. урок 03.

Mediainfo:

Общее
Полное имя                               : C:\Создание векторных иллюстраций для микростоков в Adobe Illustrator - 2014-2015\Урок 15. Создание дизайна для бизнеса. Ч.2.mp4
Формат                                   : MPEG-4
Профиль формата                          : Base Media / Version 2
Идентификатор кодека                     : mp42
Размер файла                             : 78,1 Мбайт
Продолжительность                        : 26 м.
Режим общего битрейта                    : Переменный
Общий поток                              : 412 Кбит/сек
Дата кодирования                         : UTC 2015-01-20 12:39:01
Дата пометки                             : UTC 2015-01-20 12:39:01
Видео
Идентификатор                            : 1
Формат                                   : AVC
Формат/Информация                        : Advanced Video Codec
Профиль формата                          : High@L3.1
Параметр CABAC формата                   : Да
Параметр ReFrames формата                : 4 кадра
Идентификатор кодека                     : avc1
Идентификатор кодека/Информация          : Advanced Video Coding
Продолжительность                        : 26 м.
Битрейт                                  : 261 Кбит/сек
Ширина                                   : 1280 пикселей
Высота                                   : 720 пикселей
Соотношение сторон                       : 16:9
Режим частоты кадров                     : Постоянный
Частота кадров                           : 30,000 кадров/сек
Цветовое пространство                    : YUV
Субдискретизация насыщенности            : 4:2:0
Битовая глубина                          : 8 бит
Тип развёртки                            : Прогрессивная
Бит/(Пиксели*Кадры)                      : 0.009
Размер потока                            : 49,4 Мбайт (63%)
Библиотека кодирования                   : x264 core 142 r11 24e4fed
Настройки программы                      : cabac=1 / ref=3 / deblock=1:0:0 / analyse=0x3:0x113 / me=hex / subme=7 / psy=1 / psy_rd=1.00:0.00 / mixed_ref=1 / me_range=16 / chroma_me=1 / trellis=1 / 8x8dct=1 / cqm=0 / deadzone=21,11 / fast_pskip=1 / chroma_qp_offset=-2 / threads=48 / lookahead_threads=5 / sliced_threads=0 / nr=0 / decimate=1 / interlaced=0 / bluray_compat=0 / stitchable=1 / constrained_intra=0 / bframes=3 / b_pyramid=2 / b_adapt=1 / b_bias=0 / direct=1 / weightb=1 / open_gop=0 / weightp=2 / keyint=infinite / keyint_min=30 / scenecut=40 / intra_refresh=0 / rc_lookahead=40 / rc=crf / mbtree=1 / crf=20.0 / qcomp=0.60 / qpmin=5 / qpmax=69 / qpstep=4 / vbv_maxrate=2750 / vbv_bufsize=7500 / crf_max=0.0 / nal_hrd=none / filler=0 / ip_ratio=1.40 / aq=1:1.00
Дата кодирования                         : UTC 2015-01-20 12:39:01
Дата пометки                             : UTC 2015-01-20 12:39:01
Цветовой диапазон                        : Limited
Основные цвета                           : BT.709
Характеристики трансфера                 : BT.709
Коэффициенты матрицы                     : BT.709
Аудио
Идентификатор                            : 2
Формат                                   : AAC
Формат/Информация                        : Advanced Audio Codec
Профиль формата                          : LC
Идентификатор кодека                     : 40
Продолжительность                        : 26 м.
Вид битрейта                             : Переменный
Битрейт                                  : 147 Кбит/сек
Каналы                                   : 2 канала
Расположение каналов                     : Front: L R
Частота                                  : 48,0 КГц
Метод сжатия                             : С потерями
Размер потока                            : 27,8 Мбайт (36%)
Дата кодирования                         : UTC 2015-01-20 12:39:01
Дата пометки                             : UTC 2015-01-20 12:39:01
Общее
Полное имя                               : C:\Users\Mit\Documents\Создание векторных иллюстраций для микростоков в Adobe Illustrator - 2014-2015\Урок 28. Работа со стандартными художественными кистями.mp4
Формат                                   : MPEG-4
Профиль формата                          : Base Media / Version 2
Идентификатор кодека                     : mp42
Размер файла                             : 143 Мбайт
Продолжительность                        : 19 м.
Режим общего битрейта                    : Переменный
Общий поток                              : 1041 Кбит/сек
Дата кодирования                         : UTC 2014-12-23 13:18:31
Дата пометки                             : UTC 2014-12-23 13:18:31
Видео
Идентификатор                            : 1
Формат                                   : AVC
Формат/Информация                        : Advanced Video Codec
Профиль формата                          : High@L3.1
Параметр CABAC формата                   : Да
Параметр ReFrames формата                : 4 кадра
Идентификатор кодека                     : avc1
Идентификатор кодека/Информация          : Advanced Video Coding
Продолжительность                        : 19 м.
Битрейт                                  : 890 Кбит/сек
Ширина                                   : 1280 пикселей
Высота                                   : 720 пикселей
Соотношение сторон                       : 16:9
Режим частоты кадров                     : Постоянный
Частота кадров                           : 30,000 кадров/сек
Цветовое пространство                    : YUV
Субдискретизация насыщенности            : 4:2:0
Битовая глубина                          : 8 бит
Тип развёртки                            : Прогрессивная
Бит/(Пиксели*Кадры)                      : 0.032
Размер потока                            : 122 Мбайт (85%)
Библиотека кодирования                   : x264 core 142 r11 24e4fed
Настройки программы                      : cabac=1 / ref=3 / deblock=1:0:0 / analyse=0x3:0x113 / me=hex / subme=7 / psy=1 / psy_rd=1.00:0.00 / mixed_ref=1 / me_range=16 / chroma_me=1 / trellis=1 / 8x8dct=1 / cqm=0 / deadzone=21,11 / fast_pskip=1 / chroma_qp_offset=-2 / threads=48 / lookahead_threads=5 / sliced_threads=0 / nr=0 / decimate=1 / interlaced=0 / bluray_compat=0 / stitchable=1 / constrained_intra=0 / bframes=3 / b_pyramid=2 / b_adapt=1 / b_bias=0 / direct=1 / weightb=1 / open_gop=0 / weightp=2 / keyint=infinite / keyint_min=30 / scenecut=40 / intra_refresh=0 / rc_lookahead=40 / rc=crf / mbtree=1 / crf=20.0 / qcomp=0.60 / qpmin=5 / qpmax=69 / qpstep=4 / vbv_maxrate=2750 / vbv_bufsize=7500 / crf_max=0.0 / nal_hrd=none / filler=0 / ip_ratio=1.40 / aq=1:1.00
Дата кодирования                         : UTC 2014-12-23 13:18:31
Дата пометки                             : UTC 2014-12-23 13:18:31
Цветовой диапазон                        : Limited
Основные цвета                           : BT.709
Характеристики трансфера                 : BT.709
Коэффициенты матрицы                     : BT.709
Аудио
Идентификатор                            : 2
Формат                                   : AAC
Формат/Информация                        : Advanced Audio Codec
Профиль формата                          : LC
Идентификатор кодека                     : 40
Продолжительность                        : 19 м.
Вид битрейта                             : Переменный
Битрейт                                  : 147 Кбит/сек
Каналы                                   : 2 канала
Расположение каналов                     : Front: L R
Частота                                  : 48,0 КГц
Метод сжатия                             : С потерями
Размер потока                            : 20,1 Мбайт (14%)
Дата кодирования                         : UTC 2014-12-23 13:18:31
Дата пометки                             : UTC 2014-12-23 13:18:31
Скриншоты:

Дополнительные скриншоты:

[Цитировать]

Что делать? выдает ошибка: не смонтирован предшествующий том.

[Цитировать]

35560Что делать? выдает ошибка: не смонтирован предшествующий том.
пкм по файлу (в uTorrent) дополнительно - загружать в ... указать другой путь для сохранения.
полезное видео

[Цитировать]



Показать сообщения:    

Текущее время: 08-Дек 09:04

Часовой пояс: UTC + 3


Вы не можете начинать темы
Вы не можете отвечать на сообщения
Вы не можете редактировать свои сообщения
Вы не можете удалять свои сообщения
Вы не можете голосовать в опросах
Вы не можете прикреплять файлы к сообщениям
Вы не можете скачивать файлы

!ВНИМАНИЕ!
Сайт не предоставляет электронные версии произведений, а занимается лишь коллекционированием и каталогизацией ссылок, присылаемых и публикуемых на форуме нашими читателями. Если вы являетесь правообладателем какого-либо представленного материала и не желаете, чтобы ссылка на него находилась в нашем каталоге, свяжитесь с нами, и мы незамедлительно удалим ее. Файлы для обмена на трекере предоставлены пользователями сайта, и администрация не несет ответственности за их содержание. Просьба не заливать файлы, защищенные авторскими правами, а также файлы нелегального содержания!