[ Сегодня идет свободное скачивание без начисления Download ]


Статистика раздачи
Нет
 
   
 
Top  
 
 
67-я Церемония Вручения Премии Эмми 2015 / The 67th Annual Primetime Emmy Awards 2015- Дата/Год выпуска: 20.09.2015
Страна: США
Телеканал: FOX
Жанр: Церемония Награждения
Продолжительность: 1:43:15
Перевод: Профессиональный (многоголосый закадровый) студия "NOVAMEDiA" по заказу "AMEDiA TV"
Ведущий: Энди Сэмберг-Описание: В Лос-Анджелесе в 67-й раз раздали премию Эмми – главную телевизионную награду в США, которая в этот раз выбирала лучших из телешоу и сериалов, вышедших в эфир с 1 июня 2014 до 31 мая 2015.-Автор рипа: lrn
Автор записи: Nez
Сэмпл: sendfile-Качество: HDTVRip 720p
Формат: MKV
Видео: 1280x720 (16:9), 25,000 fps, H264, ~4000 kbps avg, ~0.174 bit/pixel
Аудио#1: 48 kHz, AC3 Dolby Digital, 3/2 (L,C,R,l,r) + LFE ch, ~384.00 kbps avg | студия "NOVAMEDiA"
Аудио#2: 48 kHz, AC3 Dolby Digital, 2/0 (L,R) ch, ~192.00 kbps avg | Оригинал-

Номинанты

Лучший комедийный сериал:
"Луи" (Louie)
"Американская семейка" (Modern Family)
"Кремниевая долина" (Silicon Valley)
"Очевидное" (Transparent)
"Несгибаемая Кимми Шмидт" (Unbreakable Kimmy Schmidt)
"Вице-президент" (Veep)-Лучший драматический сериал:
"Лучше звоните Солу" (Better Call Saul)
Аббатство Даунтаун (Downton Abbey)
"Игра престолов" (Game Of Thrones)
"Чужой среди своих" (Homeland)
"Карточный домик" (House of Cards)
"Безумцы" (Mad Men)
"Оранжевый - хит сезона" (Orange is the new black)-Лучший драматический актер:
Кайл Чендлер ("Родословная")
Джефф Дэниэлс ("Новости")
Джон Хэмм ("Безумцы")
Боб Оденкирк ("Лучше звоните Солу")
Лев Шрайбер ("Рэй Донован")
Кевин Спейси ("Карточный домик")-Лучшая драматическая актриса:
Клэр Дейнс ("Чужой среди своих")
Виола Дэвис ("Как избежать наказания за убийство")
Тараджи Хенсон ("Империя")
Татьяна Маслани ("Темное дитя")
Элизабет Мосс ("Безумцы")
Робин Райт ("Карточный домик")-Лучший комедийный актер:
Энтони Андерсон ("Темнеющие")
Луи Си Кей ("Луи")
Дон Чидл ("Обитель Лжи")
Уилл Форте ("Последний человек на Земле")
Мэтт ЛеБлан ("Эпизоды")
Уильям Мейси ("Бесстыдники")
Джеффри Тэмбор ("Очевидное")-Лучшая комедийная актриса:
Эди Фалко ("Сестра Джеки")
Лиза Кудроу ("Возвращение")
Джулия Луи-Дрейфус ("Вице-президент")
Эми Полер ("Парки и зоны отдыха")
Эми Шумер ("Внутри Эми Шумер")
Лили Томлин ("Грейс и Френки")-Лучший актер мини-сериала/фильма:
Эдриан Броуди ("Гудини")
Рики Джервейс ("Дерек: финальная глава")
Тимоти Хаттон ("Американское преступление")
Ричард Дженкинс ("Что знает Оливия?")
Дэвид Ойелоуо ("Соловей")
Марк Райланс ("Волчий зал")-Лучшая актриса мини-сериала/фильма:
Мэгги Джилленхол ("Благородная женщина")
Фелисити Хаффман ("Американское преступление")
Джессика Ланж ("Американская история ужасов: фрик шоу")
Куин Латифа ("Бесси")
Фрэнсис Макдормэн ("Что знает Оливия?")
Эмма Томпсон ("Sweeney Todd: Live From Lincoln Center")-Лучшее телевезионное шоу:
"Удивительная гонка"
"Танцы со звездами"
"Проект Подиум"
"Ты думаешь, ты можешь танцевать?"
"Шеф-повар"
"Голос"-Лучшее ток-шоу:
"Отчет Кольбера"
The Daily Show
"Джимми Киммел в прямом эфире"
Last Week Tonight
Позднее шоу с Дэвидом Латтерманом
The Tonight Show Starring Jimmy Fallon

MediaInfo

General
Unique ID : 231713256321259248546711755886434160240 (0xAE52599221FBEFEC95E1CE62A2FB8E70)
Complete name : E:uTorrent.TempTempThe.67th.Annual.Primetime.Emmy.Awards.2015.HDTV.720p.x264-RUS-ENG-lrn.mkv
Format : Matroska
Format version : Version 4 / Version 2
File size : 3.30 GiB
Duration : 1h 43mn
Overall bit rate : 4 578 Kbps
Movie name : The.67th.Annual.Primetime.Emmy.Awards.2015.HDTV.720p.x264-RUS-ENG-lrn
Encoded date : UTC 2010-02-22 21:41:31
Writing application : mkvmerge v5.9.0 ('On The Loose') built on Dec 9 2012 15:37:01
Writing library : libebml v1.3.0 + libmatroska v1.4.0
DURATION : 01:43:15.000000000
NUMBER_OF_FRAMES : 154875
NUMBER_OF_BYTES : 3097446285
_STATISTICS_WRITING_APP : mkvmerge v7.7.0 ('Six Voices') 32bit built on Feb 28 2015 23:23:00
_STATISTICS_WRITING_DATE_UT : 2015-09-22 20:53:53
_STATISTICS_TAGS : BPS DURATION NUMBER_OF_FRAMES NUMBER_OF_BYTES
Video
ID : 1
Format : AVC
Format/Info : Advanced Video Codec
Format profile : [email protected]
Format settings, CABAC : Yes
Format settings, ReFrames : 8 frames
Codec ID : V_MPEG4/ISO/AVC
Duration : 1h 43mn
Bit rate : 4 000 Kbps
Width : 1 280 pixels
Height : 720 pixels
Display aspect ratio : 16:9
Frame rate mode : Constant
Frame rate : 25.000 fps
Color space : YUV
Chroma subsampling : 4:2:0
Bit depth : 8 bits
Scan type : Progressive
Bits/(Pixel*Frame) : 0.174
Stream size : 2.82 GiB (85%)
Writing library : x264 core 146 r2538 121396c
Encoding settings : cabac=1 / ref=8 / deblock=1:-3:-3 / analyse=0x3:0x133 / me=umh / subme=9 / psy=1 / psy_rd=1.00:0.00 / mixed_ref=1 / me_range=32 / chroma_me=1 / trellis=2 / 8x8dct=1 / cqm=0 / deadzone=21,11 / fast_pskip=1 / chroma_qp_offset=-2 / threads=12 / lookahead_threads=2 / sliced_threads=0 / nr=0 / decimate=1 / interlaced=0 / bluray_compat=0 / constrained_intra=0 / bframes=8 / b_pyramid=2 / b_adapt=2 / b_bias=0 / direct=3 / weightb=1 / open_gop=0 / weightp=2 / keyint=250 / keyint_min=25 / scenecut=40 / intra_refresh=0 / rc_lookahead=50 / rc=2pass / mbtree=1 / bitrate=4000 / ratetol=1.0 / qcomp=0.60 / qpmin=0 / qpmax=69 / qpstep=4 / cplxblur=20.0 / qblur=0.5 / vbv_maxrate=62500 / vbv_bufsize=78125 / nal_hrd=none / filler=0 / ip_ratio=1.40 / aq=1:1.00
Default : Yes
Forced : No
Audio #1
ID : 2
Format : AC-3
Format/Info : Audio Coding 3
Mode extension : CM (complete main)
Format settings, Endianness : Big
Codec ID : A_AC3
Duration : 1h 43mn
Bit rate mode : Constant
Bit rate : 384 Kbps
Channel(s) : 6 channels
Channel positions : Front: L C R, Side: L R, LFE
Sampling rate : 48.0 KHz
Compression mode : Lossy
Stream size : 284 MiB (8%)
Language : Russian
Default : Yes
Forced : Yes
Audio #2
ID : 3
Format : AC-3
Format/Info : Audio Coding 3
Mode extension : CM (complete main)
Format settings, Endianness : Big
Codec ID : A_AC3
Duration : 1h 43mn
Bit rate mode : Constant
Bit rate : 192 Kbps
Channel(s) : 2 channels
Channel positions : Front: L R
Sampling rate : 48.0 KHz
Compression mode : Lossy
Stream size : 142 MiB (4%)
Language : English
Default : No
Forced : No

x264 log

raw [info]: 1280x720p 1:1 @ 25/1 fps (cfr)
x264 [info]: using SAR=1/1
x264 [info]: using cpu capabilities: MMX2 SSE2Fast SSSE3 SSE4.2 AVX
x264 [info]: profile High, level 4.1
x264 [info]: frame I:1036 Avg QP:13.94 size:106725
x264 [info]: frame P:40427 Avg QP:16.88 size: 41928
x264 [info]: frame B:113412 Avg QP:19.26 size: 11391
x264 [info]: consecutive B-frames: 3.0% 4.5% 10.8% 43.1% 23.5% 13.3% 1.4% 0.4% 0.2%
x264 [info]: mb I I16..4: 6.3% 73.3% 20.4%
x264 [info]: mb P I16..4: 4.2% 15.7% 2.1% P16..4: 39.6% 22.1% 12.2% 0.6% 0.1% skip: 3.4%
x264 [info]: mb B I16..4: 0.5% 1.2% 0.2% B16..8: 37.5% 10.0% 2.3% direct: 9.0% skip:39.3% L0:39.7% L1:43.9% BI:16.5%
x264 [info]: 8x8 transform intra:70.4% inter:62.0%
x264 [info]: direct mvs spatial:98.5% temporal:1.5%
x264 [info]: coded y,uvDC,uvAC intra: 63.9% 83.0% 55.9% inter: 25.2% 28.1% 3.2%
x264 [info]: i16 v,h,dc,p: 45% 16% 8% 31%
x264 [info]: i8 v,h,dc,ddl,ddr,vr,hd,vl,hu: 19% 11% 13% 7% 9% 11% 9% 10% 10%
x264 [info]: i4 v,h,dc,ddl,ddr,vr,hd,vl,hu: 24% 10% 9% 7% 11% 12% 9% 9% 8%
x264 [info]: i8c dc,h,v,p: 37% 24% 25% 14%
x264 [info]: Weighted P-Frames: Y:6.4% UV:4.8%
x264 [info]: ref P L0: 50.4% 10.9% 18.5% 6.1% 5.1% 3.4% 3.2% 2.1% 0.3% 0.0%
x264 [info]: ref B L0: 83.4% 9.5% 3.2% 1.7% 1.1% 0.7% 0.4%
x264 [info]: ref B L1: 96.0% 4.0%
x264 [info]: kb/s:3999.93
encoded 154875 frames, 13.35 fps, 3999.93 kb/s

Скриншоты

[Цитировать]



Показать сообщения:    

Текущее время: 04-Дек 19:22

Часовой пояс: UTC + 3


Вы не можете начинать темы
Вы не можете отвечать на сообщения
Вы не можете редактировать свои сообщения
Вы не можете удалять свои сообщения
Вы не можете голосовать в опросах
Вы не можете прикреплять файлы к сообщениям
Вы не можете скачивать файлы

!ВНИМАНИЕ!
Сайт не предоставляет электронные версии произведений, а занимается лишь коллекционированием и каталогизацией ссылок, присылаемых и публикуемых на форуме нашими читателями. Если вы являетесь правообладателем какого-либо представленного материала и не желаете, чтобы ссылка на него находилась в нашем каталоге, свяжитесь с нами, и мы незамедлительно удалим ее. Файлы для обмена на трекере предоставлены пользователями сайта, и администрация не несет ответственности за их содержание. Просьба не заливать файлы, защищенные авторскими правами, а также файлы нелегального содержания!