[ Сегодня идет свободное скачивание без начисления Download ]


Статистика раздачи
Нет
 
   
 
Top  
 
 
STRIA / Chimera- Жанр: Alt.Metal / Rapcore / Christian
Год издания: 2009
Страна: Orlando, Florida, USA
Аудиокодек: FLAC (*.flac)
Тип рипа: tracks+.cue
Битрейт аудио: lossless
Продолжительность: 00:42:02
Источник (релизер): Morgue
Наличие сканов в содержимом раздачи: нет
Треклист:
01. Beneath
02. Surface
03. Medical Art
04. Burn
05. Red Hour
06. Famous X (Following the Kill)
07. Useless Me
08. Armor of Scars
09. Level
10. Better Than I
11. Shatter
12. My Adhesion

Лог создания рипа

Exact Audio Copy V1.0 beta 2 from 29. April 2011
EAC extraction logfile from 24. July 2012, 10:12
Stria / Chimera
Used drive : PLDS DVD-RW DH16ACSH Adapter: 1 ID: 0
Read mode : SecureUtilize accurate stream : YesDefeat audio cache : YesMake use of C2 pointers : No
Read offset correction : 6Overread into Lead-In and Lead-Out : NoFill up missing offset samples with silence : YesDelete leading and trailing silent blocks : NoNull samples used in CRC calculations : YesUsed interface : Native Win32 interface for Win NT & 2000Gap handling : Appended to previous track
Used output format : User Defined EncoderSelected bitrate : 128 kBit/sQuality : HighAdd ID3 tag : NoCommand line compressor : C:\Program Files\Exact Audio Copy\Flac\flac.exe
TOC of the extracted CD
Track | Start | Length | Start sector | End sector --------------------------------------------------------- 1 | 0:00.00 | 0:56.18 | 0 | 4217 2 | 0:56.18 | 4:05.40 | 4218 | 22632 3 | 5:01.58 | 2:54.45 | 22633 | 35727 4 | 7:56.28 | 3:19.14 | 35728 | 50666 5 | 11:15.42 | 3:17.04 | 50667 | 65445 6 | 14:32.46 | 6:05.26 | 65446 | 92846 7 | 20:37.72 | 3:29.41 | 92847 | 108562 8 | 24:07.38 | 3:18.19 | 108563 | 123431 9 | 27:25.57 | 4:07.12 | 123432 | 141968 10 | 31:32.69 | 2:53.67 | 141969 | 155010 11 | 34:26.61 | 2:54.19 | 155011 | 168079 12 | 37:21.05 | 3:46.67 | 168080 | 185096
Track 1
Filename F:\Stria - Chimera\01 Beneath.wav
Pre-gap length 0:00:02.00
Peak level 98.8 % Extraction speed 2.6 X Track quality 100.0 % Test CRC 0A8BE71A Copy CRC 0A8BE71A Copy OK
Track 2
Filename F:\Stria - Chimera\02 Surface.wav
Peak level 98.9 % Extraction speed 4.1 X Track quality 100.0 % Test CRC B8215B4D Copy CRC B8215B4D Copy OK
Track 3
Filename F:\Stria - Chimera\03 Medical Art.wav
Peak level 98.8 % Extraction speed 3.1 X Track quality 99.9 % Test CRC EAD207AE Copy CRC EAD207AE Copy OK
Track 4
Filename F:\Stria - Chimera\04 Burn.wav
Peak level 98.9 % Extraction speed 3.5 X Track quality 99.9 % Test CRC 6D08E0E5 Copy CRC 6D08E0E5 Copy OK
Track 5
Filename F:\Stria - Chimera\05 Red Hour.wav
Peak level 98.9 % Extraction speed 4.7 X Track quality 100.0 % Test CRC 5136D0D6 Copy CRC 5136D0D6 Copy OK
Track 6
Filename F:\Stria - Chimera\06 Famous X.wav
Peak level 98.9 % Extraction speed 5.5 X Track quality 100.0 % Test CRC 4785A010 Copy CRC 4785A010 Copy OK
Track 7
Filename F:\Stria - Chimera\07 Useless Me.wav
Peak level 98.9 % Extraction speed 5.4 X Track quality 100.0 % Test CRC D45EAF77 Copy CRC D45EAF77 Copy OK
Track 8
Filename F:\Stria - Chimera\08 Armor Of Scars.wav
Peak level 98.9 % Extraction speed 5.6 X Track quality 100.0 % Test CRC 86097121 Copy CRC 86097121 Copy OK
Track 9
Filename F:\Stria - Chimera\09 Level.wav
Peak level 98.9 % Extraction speed 5.9 X Track quality 100.0 % Test CRC 2FD92130 Copy CRC 2FD92130 Copy OK
Track 10
Filename F:\Stria - Chimera\10 Better Than I.wav
Peak level 98.9 % Extraction speed 5.7 X Track quality 100.0 % Test CRC DA3BC109 Copy CRC DA3BC109 Copy OK
Track 11
Filename F:\Stria - Chimera\11 Shatter.wav
Peak level 98.9 % Extraction speed 4.4 X Track quality 99.9 % Test CRC 971DC6F2 Copy CRC 971DC6F2 Copy OK
Track 12
Filename F:\Stria - Chimera\12 My Adhesion.wav
Peak level 98.9 % Extraction speed 4.7 X Track quality 100.0 % Test CRC 9C605B48 Copy CRC 9C605B48 Copy OK
No errors occurred
End of status report

Содержание индексной карты (.CUE)

REM GENRE Alt.metal/Crossover/ChristianREM DATE 2009REM DISCID B309A30CREM COMMENT "ExactAudioCopy v1.0b2"PERFORMER "Stria"TITLE "Chimera"FILE "01 Beneath.wav" WAVE TRACK 01 AUDIO TITLE "Beneath" PERFORMER "Stria" INDEX 01 00:00:00FILE "02 Surface.wav" WAVE TRACK 02 AUDIO TITLE "Surface" PERFORMER "Stria" INDEX 01 00:00:00FILE "03 Medical Art.wav" WAVE TRACK 03 AUDIO TITLE "Medical Art" PERFORMER "Stria" INDEX 01 00:00:00FILE "04 Burn.wav" WAVE TRACK 04 AUDIO TITLE "Burn" PERFORMER "Stria" INDEX 01 00:00:00FILE "05 Red Hour.wav" WAVE TRACK 05 AUDIO TITLE "Red Hour" PERFORMER "Stria" INDEX 01 00:00:00FILE "06 Famous X.wav" WAVE TRACK 06 AUDIO TITLE "Famous X" PERFORMER "Stria" INDEX 01 00:00:00FILE "07 Useless Me.wav" WAVE TRACK 07 AUDIO TITLE "Useless Me" PERFORMER "Stria" INDEX 01 00:00:00FILE "08 Armor Of Scars.wav" WAVE TRACK 08 AUDIO TITLE "Armor Of Scars" PERFORMER "Stria" INDEX 01 00:00:00FILE "09 Level.wav" WAVE TRACK 09 AUDIO TITLE "Level" PERFORMER "Stria" INDEX 01 00:00:00FILE "10 Better Than I.wav" WAVE TRACK 10 AUDIO TITLE "Better Than I" PERFORMER "Stria" INDEX 01 00:00:00FILE "11 Shatter.wav" WAVE TRACK 11 AUDIO TITLE "Shatter" PERFORMER "Stria" INDEX 01 00:00:00FILE "12 My Adhesion.wav" WAVE TRACK 12 AUDIO TITLE "My Adhesion" PERFORMER "Stria" INDEX 01 00:00:00

Скриншот спектра частот

[Цитировать]



Показать сообщения:    

Текущее время: 04-Дек 09:13

Часовой пояс: UTC + 3


Вы не можете начинать темы
Вы не можете отвечать на сообщения
Вы не можете редактировать свои сообщения
Вы не можете удалять свои сообщения
Вы не можете голосовать в опросах
Вы не можете прикреплять файлы к сообщениям
Вы не можете скачивать файлы

!ВНИМАНИЕ!
Сайт не предоставляет электронные версии произведений, а занимается лишь коллекционированием и каталогизацией ссылок, присылаемых и публикуемых на форуме нашими читателями. Если вы являетесь правообладателем какого-либо представленного материала и не желаете, чтобы ссылка на него находилась в нашем каталоге, свяжитесь с нами, и мы незамедлительно удалим ее. Файлы для обмена на трекере предоставлены пользователями сайта, и администрация не несет ответственности за их содержание. Просьба не заливать файлы, защищенные авторскими правами, а также файлы нелегального содержания!