[ Сегодня идет свободное скачивание без начисления Download ]


Статистика раздачи
Нет
 
   
 
Top  
 
 
-Rammstein - In Amerika (2015) BDRemux [H.264/1080p] - Выпущено: Германия, Island/UMe
Жанр: Industrial Metal, NDH
Год выпуска: 2015
Исполнитель: Rammstein
Описание:
Rammstein выпустили DVD «In Amerika». С триумфом вернулись в США 12 ноября 2010 года, выступив перед толпой в 18.000 человек на сцене Madison Square Garden в Нью-Йорке. Спустя пятилетие, 25 сентября этого года концерт под названием «Live From Madison Square Garden» получит официальный релиз на 2DVD и 2Blu-ray стараниями лейбла Island/UMe. Соединив зажигательное выступление немецких индастриал-металлистов с продуманной визуальной концепцией, полуторачасовое шоу записывалось в формате 5.1 surround sound на 14 камер. Дополнительным бонусом станет полнометражный документальный фильм «Rammstein In Amerika» от режиссера Ханнеса Россачера (Hannes Rossacher), а также 20-минутный очерк «Making Of Liebe Ist Für Alle Da» о создании шестого альбома RAMMSTEIN, «Liebe Ist Für Alle Da» (2009), который записывался в ноябре/ декабре 2008 года с Сономе, Калифорния.
Продолжительность: 01:41:55
Качество видео: BDRemux (1080p)
Контейнер: MKV
Битрейт видео: ~33.7 Mбит/с, (16:9), 1920x1080р, 24,000 fps, High Profile 4.1
Видеокодек: MPEG-4 AVC
Аудиокодек: DTS, AC3
Аудио #1: DTS-HD Master Audio German / 5.1 / 48 kHz / 5122 kbps / 24-bit (DTS Core: 5.1 / 48 kHz / 1509 kbps / 24-bit)
Аудио #2: DTS 5.1 , 1509 kbps, 96 kHz / 13824 kbps / 24-bit
Аудио #3: AC3 2.0, 640 kbps, 48 kHz
Семпл
Релиз от
..

Треклист:

Треклист:
01. Rammlied
02. B*********
03. Waidmanns Heil
04. Keine Lust
05. Weisses Fleisch
06. Feuer Frei!
07. Weiner Blut
08. Fruhling in Paris
09. Ich Tu Dir Weh
10. Du Reichst So Gut
11. Benzin
12. Links 2 3 4
13. Du Hast
14. Pussy
15. Sonne
16. Haifisch
17. Ich Will
18. Engel

MediaInfo

Формат : Matroska
Версия формата : Version 2
Размер файла : 29,2 Гбайт
Продолжительность : 1 ч. 41 м.
Режим общего битрейта : Переменный
Общий поток : 41,0 Мбит/сек
Дата кодирования : UTC 2015-09-26 23:13:30
Программа кодирования : mkvmerge v4.9.1 ('Ich will') сборка от Jul 11 2011 23:53:15
Библиотека кодирования : libebml v1.2.1 + libmatroska v1.1.1
Видео
Идентификатор : 1
Формат : AVC
Формат/Информация : Advanced Video Codec
Профиль формата : High@L4.1
Параметр CABAC формата : Да
Параметр ReFrames формата : 2 кадра
Режим смешивания : Header stripping
Идентификатор кодека : V_MPEG4/ISO/AVC
Продолжительность : 1 ч. 41 м.
Вид битрейта : Переменный
Максимальный битрейт : 35,2 Мбит/сек
Ширина : 1920 пикселей
Высота : 1080 пикселей
Соотношение сторон : 16:9
Режим частоты кадров : Постоянный
Частота кадров : 24,000 кадра/сек
Цветовое пространство : YUV
Субдискретизация насыщенности : 4:2:0
Битовая глубина : 8 бит
Тип развёртки : Прогрессивная
Заголовок : nnm-club
Default : Да
Forced : Нет
Аудио #1
Идентификатор : 2
Формат : DTS
Формат/Информация : Digital Theater Systems
Профиль формата : MA / Core
Режим : 16
Параметр Endianness формата : Big
Режим смешивания : Header stripping
Идентификатор кодека : A_DTS
Продолжительность : 1 ч. 41 м.
Вид битрейта : Переменный
Битрейт : Неизвестно / 1509 Кбит/сек
Каналы : 6 каналов
Расположение каналов : Front: L C R, Side: L R, LFE
Частота : 48,0 КГц
Битовая глубина : 24 бит
Метод сжатия : Без потерь / Lossy
Заголовок : nnm-club
Default : Да
Forced : Нет
Аудио #2
Идентификатор : 3
Формат : DTS
Формат/Информация : Digital Theater Systems
Режим : 16
Параметр Endianness формата : Big
Режим смешивания : Header stripping
Идентификатор кодека : A_DTS
Продолжительность : 1 ч. 41 м.
Вид битрейта : Постоянный
Битрейт : 1509 Кбит/сек
Каналы : 6 каналов
Расположение каналов : Front: L C R, Side: L R, LFE
Частота : 48,0 КГц
Битовая глубина : 24 бит
Метод сжатия : С потерями
Размер потока : 1,07 Гбайт (4%)
Заголовок : nnm-club
Default : Нет
Forced : Нет
Аудио #3
Идентификатор : 4
Формат : AC-3
Формат/Информация : Audio Coding 3
Расширение режима : CM (complete main)
Параметр Endianness формата : Big
Режим смешивания : Header stripping
Идентификатор кодека : A_AC3
Продолжительность : 1 ч. 41 м.
Вид битрейта : Постоянный
Битрейт : 640 Кбит/сек
Каналы : 2 канала
Расположение каналов : Front: L R
Частота : 48,0 КГц
Метод сжатия : С потерями
Размер потока : 467 Мбайт (2%)
Заголовок : nnm-club
Default : Нет
Forced : Нет
Меню
00:00:00.000 : :Chapter 01
00:02:36.791 : :Chapter 02
00:07:33.458 : :Chapter 03
00:11:50.875 : :Chapter 04
00:15:50.208 : :Chapter 05
00:19:44.291 : :Chapter 06
00:24:31.625 : :Chapter 07
00:28:09.291 : :Chapter 08
00:34:12.833 : :Chapter 09
00:40:16.000 : :Chapter 10
00:46:56.375 : :Chapter 11
00:52:00.000 : :Chapter 12
00:56:44.916 : :Chapter 13
01:01:39.833 : :Chapter 14
01:05:54.833 : :Chapter 15
01:14:44.833 : :Chapter 16
01:19:47.458 : :Chapter 17
01:26:01.750 : :Chapter 18
01:30:12.416 : :Chapter 19
01:37:51.000 : :Chapter 20
Скриншоты:

[Цитировать]



Показать сообщения:    

Текущее время: 08-Дек 12:52

Часовой пояс: UTC + 3


Вы не можете начинать темы
Вы не можете отвечать на сообщения
Вы не можете редактировать свои сообщения
Вы не можете удалять свои сообщения
Вы не можете голосовать в опросах
Вы не можете прикреплять файлы к сообщениям
Вы не можете скачивать файлы

!ВНИМАНИЕ!
Сайт не предоставляет электронные версии произведений, а занимается лишь коллекционированием и каталогизацией ссылок, присылаемых и публикуемых на форуме нашими читателями. Если вы являетесь правообладателем какого-либо представленного материала и не желаете, чтобы ссылка на него находилась в нашем каталоге, свяжитесь с нами, и мы незамедлительно удалим ее. Файлы для обмена на трекере предоставлены пользователями сайта, и администрация не несет ответственности за их содержание. Просьба не заливать файлы, защищенные авторскими правами, а также файлы нелегального содержания!