[ Сегодня идет свободное скачивание без начисления Download ]


Статистика раздачи
Скачал: [ 1 ]
 
   
 
Top  
 
 
Шеф. Новая жизнь (2015) SATRip (сезон 3, серии 1-32 из 32 + Послесловие)- Производство: Россия / Триикс Медиа
Жанр: криминал
Режиссер: Олег Ларин
Актеры: Андрей Чубченко, Анна Табанина, Кирилл Полухин, Александр Рыбаков, Сергей Бледных, Кирилл Рубцов, Дмитрий Сутырин, Юрий Сысоев, Андрей Чуманов, Геннадий Смирнов, Олег Метелев, Антон Пулит, Яна Бушина, Юрий Сташин, Павел Грязнов, Степан Пивкин, Александр Кладько, Сергей Андрейчук, Андрей Иванов, Виталий Пичик, Александр Шпилько, Николай Поздеев, Андрей Дежонов и др.
Описание:
Полковник полиции Виктор Расторгуев, дав показания на членов преступной группы, возглавлял которую его близкий друг, генерал МВД Константин Лыков, согласился на инсценировку своей гибели. Теперь он, его любимая женщина Даша Истомина и дочь Полина находятся под присмотром сотрудников Управления МВД по обеспечению безопасности лиц, подлежащих государственной защите. Переезжая из города в город, наши герои оказались в небольшом сибирском городке Томилинске. Расторгуев получил новую биографию, сменил фамилию и устроился работать в такси, он старается забыть о прошлой жизни и хочет посвятить себя дочери и любимой женщине. Но несправедливость и преступления есть везде...
Продолжительность: ~ 00:45:00 серия
Качество видео: SATRip
Видео: XviD, 720х448 (16:10), ~2200 kbps
Аудио: MPEG Layer 3, 44.1 kHz, 2 ch, 128 kbps, CBR

MediaInfo:

General
Complete name : D:\Шеф Новая жизнь 2015 SatRip\01.serija.avi
Format : AVI
Format/Info : Audio Video Interleave
File size : 754 MiB
Duration : 45mn 9s
Overall bit rate : 2 334 Kbps
Writing application : transcode-1.1.5
Video
ID : 0
Format : MPEG-4 Visual
Format profile : Advanced [email protected]
Format settings, BVOP : 1
Format settings, QPel : No
Format settings, GMC : No warppoints
Format settings, Matrix : Default (MPEG)
Codec ID : XVID
Codec ID/Hint : XviD
Duration : 45mn 9s
Bit rate : 2 194 Kbps
Width : 720 pixels
Height : 448 pixels
Display aspect ratio : 16:10
Frame rate : 30.000 fps
Color space : YUV
Chroma subsampling : 4:2:0
Bit depth : 8 bits
Scan type : Progressive
Compression mode : Lossy
Bits/(Pixel*Frame) : 0.227
Stream size : 709 MiB (94%)
Writing library : XviD 65
Audio
ID : 1
Format : MPEG Audio
Format version : Version 1
Format profile : Layer 3
Mode : Joint stereo
Codec ID : 55
Codec ID/Hint : MP3
Duration : 45mn 9s
Bit rate mode : Constant
Bit rate : 128 Kbps
Channel(s) : 2 channels
Sampling rate : 44.1 KHz
Compression mode : Lossy
Delay relative to video : 17ms
Stream size : 41.3 MiB (5%)
Alignment : Split accross interleaves
Interleave, duration : 33 ms (1.00 video frame)
Interleave, preload duratio : 500 ms
Writing library : LAME3.99.5ЄЄЄЄЄЄЄЄЄЄ
Скриншоты:

[Цитировать]



Показать сообщения:    

Текущее время: 04-Дек 04:57

Часовой пояс: UTC + 3


Вы не можете начинать темы
Вы не можете отвечать на сообщения
Вы не можете редактировать свои сообщения
Вы не можете удалять свои сообщения
Вы не можете голосовать в опросах
Вы не можете прикреплять файлы к сообщениям
Вы не можете скачивать файлы

!ВНИМАНИЕ!
Сайт не предоставляет электронные версии произведений, а занимается лишь коллекционированием и каталогизацией ссылок, присылаемых и публикуемых на форуме нашими читателями. Если вы являетесь правообладателем какого-либо представленного материала и не желаете, чтобы ссылка на него находилась в нашем каталоге, свяжитесь с нами, и мы незамедлительно удалим ее. Файлы для обмена на трекере предоставлены пользователями сайта, и администрация не несет ответственности за их содержание. Просьба не заливать файлы, защищенные авторскими правами, а также файлы нелегального содержания!