[ Сегодня идет свободное скачивание без начисления Download ]


Статистика раздачи
Нет
 
   
 
Top  
 
 
Предки (Сезон 1, 12 серий из 12) + Азбука (30 серий) (2015) WEB-DLRip - Производство: Беларусь, Студия Chin Up (г. Гомель)
Жанр: Рисованная анимация, Детский, Развивающий, Приключения
Режиссер: Олег Печень
Описание:
«Предки» – остроумный, добрый и познавательный мультсериал для детей от 3 до 5 лет, действие которого происходит в мире, похожем на нечто среднее между доисторическими временами и современностью. Главные герои – обитающая в деревне Предково семья, в которой есть папа, мама, сын Щапа, дочка Ляля и домашняя лиса. Они живут в оборудованном всем необходимым доме, отдаленно напоминающем пещеру, ездят на деревянном автомобиле, при этом Щапа и Леля ходят в детский садик, а родители ездяь за продуктами в круглосуточный супермаркет – словом, хоть и отличаются от нас, но не сильно. Стоит ли говорить, что эта семья ежедневно переживает маленькие (а иногда и большие) приключения. То на пороге их дома окажется бездомный щенок, то дети пытаются самостоятельно испечь блины и заливают тестом всю кухню… Скучать им не приходится...
«Азбука» от мультсериала «Предки» - это развиващий мультик, который позволит вашему малышу с лёгкостью выучить алфавит. Если вы хотите, чтобы ваш ребёнок был внимательным, собранным и при этом ещё учил
буквы, то "Азбука" - то, что вам нужно. В каждой серии обучение азбуке происходит в процессе полного игр и забав увлекательного путешествия по тропическим джунглям, в котором дети смогут найти и запомнить новую букву, научиться её правильно произносить и придумывать слова, с неё начинающиеся.
Релиз от: delfy1, Karamelika
Продолжительность: Предки - 12 x ~ 00:06:38, Азбука - 30 x ~ 00:03:06
Качество видео: WEB-DLRip
Видео: MPEG4, XviD, 720x400 (16:9), 25.000 fps, 1 339 Kbps (0.186 bit/pixel)
Аудио: MP3, 44.1 KHz, 2 ch, 192 Kbps, CBR

Mediainfo:

Видео
Идентификатор                            : 0
Формат                                   : MPEG-4 Visual
Профиль формата                          : Advanced Simple@L5
Параметр BVOP формата                    : 2
Параметр QPel формата                    : Нет
Параметр GMC формата                     : Без точки перехода
Параметр матрицы формата                 : Default (H.263)
Идентификатор кодека                     : XVID
Идентификатор кодека/Подсказка           : XviD
Продолжительность                        : 6 м. 28 с.
Битрейт                                  : 1339 Кбит/сек
Ширина                                   : 720 пикселей
Высота                                   : 400 пикселей
Соотношение сторон                       : 16:9
Соотношение сторон в оригинале           : 16:9
Частота кадров                           : 25,000 кадров/сек
Цветовое пространство                    : YUV
Субдискретизация насыщенности            : 4:2:0
Битовая глубина                          : 8 бит
Тип развёртки                            : Прогрессивная
Метод сжатия                             : С потерями
Бит/(Пиксели*Кадры)                      : 0.186
Размер потока                            : 62,0 Мбайт (87%)
Библиотека кодирования                   : XviD 1.2.1 (UTC 2008-12-04)
Аудио
Идентификатор                            : 1
Формат                                   : MPEG Audio
Версия формата                           : Version 1
Профиль формата                          : Layer 3
Режим                                    : Joint stereo
Идентификатор кодека                     : 55
Идентификатор кодека/Подсказка           : MP3
Продолжительность                        : 6 м. 28 с.
Вид битрейта                             : Постоянный
Битрейт                                  : 192 Кбит/сек
Каналы                                   : 2 канала
Частота                                  : 44,1 КГц
Метод сжатия                             : С потерями
Задержка видео                           : 40 мс.
Размер потока                            : 8,90 Мбайт (12%)
Выравнивание                             : Соединение по промежуткам
Продолжительность промежутка             : 26  мс. (0,65 видеокадр)
Время предзагрузки промежутка            : 522  мс.

О мультфильме и его создателях:

"Сейчас много разных мультиков, но в них не знакомят детей с жизненными принципами", - подумали парни из Гомеля и приступили к созданию мультсериала "Предки", целевая аудитория которого от 3 до 5 лет. "В этом возрасте свойственно фантазировать, а времена динозавров позволяют познавать мир во всей его красе", - говорят создатели "Предков". Первый мультфильм выложили на YouTube, скоро там появятся и остальные серии.
..."Мы решили: пора входить во взрослую жизнь - так возникла идея создания мультика для детей"
- Во времена студенчества мы играли в КВН, сочиняли шутки, готовили "А ну-ка, первокурсник", потом писали сценарии к сериалам и фильмам. Нам нравилось заниматься творчеством и потому, когда пришло время начинать взрослую жизнь, решили создать анимационную студию Chin Up, - рассказывает директор студии Олег Печень, который руководит творческим процессом, он же режиссер мультсериала "Предки".
Студия арендует офис в уютном коттедже в центре Гомеля. Но ребята говорят, что все у них продумано так, чтобы не было привязанности к определенному месту. К работе над своими проектами они привлекают и фрилансеров, причем не только из Беларуси. Начали с изготовления трейлеров к российским фильмам. Постепенно зрела мысль, что команде под силу сделать многосерийный анимационный фильм.
...В коллективе единомышленников весьма разнообразный состав: спецназовец, архитектор, эколог, географ, психолог, студенты. Всего над мультиком работают 15 молодых ребят из Беларуси и России. Примечательно, что ни у кого из них пока нет своих детей...
Читать полностью: http://news.tut.by/culture/436752.html
Скриншоты:

Скриншоты Азбука:



[Цитировать]



Показать сообщения:    

Текущее время: 10-Дек 06:10

Часовой пояс: UTC + 3


Вы не можете начинать темы
Вы не можете отвечать на сообщения
Вы не можете редактировать свои сообщения
Вы не можете удалять свои сообщения
Вы не можете голосовать в опросах
Вы не можете прикреплять файлы к сообщениям
Вы не можете скачивать файлы

!ВНИМАНИЕ!
Сайт не предоставляет электронные версии произведений, а занимается лишь коллекционированием и каталогизацией ссылок, присылаемых и публикуемых на форуме нашими читателями. Если вы являетесь правообладателем какого-либо представленного материала и не желаете, чтобы ссылка на него находилась в нашем каталоге, свяжитесь с нами, и мы незамедлительно удалим ее. Файлы для обмена на трекере предоставлены пользователями сайта, и администрация не несет ответственности за их содержание. Просьба не заливать файлы, защищенные авторскими правами, а также файлы нелегального содержания!