[ Сегодня идет свободное скачивание без начисления Download ]


Статистика раздачи
Нет
 
   
 
Top  
 
 
Раскаленный периметр- -Год выпуска: 2014
Производство: ООО «Триикс Медиа»
Жанр: детектив, криминал
Продолжительность: 00:48:00
Субтитры: нет-Режиссёр: Игорь Драка-В ролях:
Сергей Горобченко, Никита Волков, Оксана Скакун, Юрий Николаенко, Анатолий Бобер,
Анастасия Спектор, Денис Старков, Алексей Суренский, Владимир Чернышов, Константин Шелестун-Описание:
Андрей и Игорь, только что демобилизовавшиеся десантники, едут отдыхать в небольшой приморский городок, где живет родная тетя Игоря. От нее друзья узнают, что на пляжах города стали похищать девушек. Полиция ведет поиски, но тщетно. А вскоре полицейские задерживают Андрея и Игоря, так как пропали девушки, с которыми парни познакомились накануне.
Дело ведет майор Никольский. Поняв, что Андрей и Игорь не имеют отношения к похищениям, он рассказывает, что, по оперативной информации, к преступлениям причастны двое парней. У сыщиков весьма скудные сведения: известно лишь, что парни высокие и мускулистые.
На следующий день Игорь видит, как двое крепких парней знакомятся на пляже с девушками. Андрей не придает этому значения и идет купаться. А когда выходит из воды, обнаруживает, что Игорь лежит на песке без сознания. В тяжёлом состоянии Игоря отвозят в местную больницу, он в коме. Врачам не удаётся установить точный диагноз. Тем временем Андрей разыскивает Никольского и рассказывает ему о двух парнях, которых заметил Игорь. Никольский отправляет в больницу экспертов, которые выясняют, что Игорю сделали укол сильнодействующего препарата. Андрей просит Никольского разрешить ему участвовать в расследовании…--Возраст: 16+-Качество: HDTV (1080i)
Формат: TS
Видео кодек: AVC
Аудио кодек: MP2

Видео: AVC, 1920 х 1080 (16:9), 25,000 кадр/сек, 7 884 Кбит/сек, 0.152 bit/pixel
Аудио: MP2, 48000 Hz, 192 Kbps, 2 канала-

MediaInfo

General
ID : 1 (0x1)
Complete name : D:\Раздачи\Раскаленный периметр (1-4 серии из 4) HDTV (1080i)\Raskalenniy.perimetr.02.2014.HDTV.1080i.ts
Format : MPEG-TS
File size : 2.51 GiB
Duration : 42mn 21s
Overall bit rate mode : Variable
Overall bit rate : 8 498 Kbps
Video
ID : 901 (0x385)
Menu ID : 90 (0x5A)
Format : AVC
Format/Info : Advanced Video Codec
Format profile : [email protected]
Format settings, CABAC : Yes
Format settings, ReFrames : 2 frames
Codec ID : 27
Duration : 42mn 21s
Bit rate : 7 884 Kbps
Width : 1 920 pixels
Height : 1 080 pixels
Display aspect ratio : 16:9
Frame rate : 25.000 fps
Color space : YUV
Chroma subsampling : 4:2:0
Bit depth : 8 bits
Scan type : MBAFF
Scan order : Top Field First
Bits/(Pixel*Frame) : 0.152
Stream size : 2.33 GiB (93%)
Color range : Limited
Color primaries : BT.709
Transfer characteristics : BT.709
Matrix coefficients : BT.709
Audio
ID : 902 (0x386)
Menu ID : 90 (0x5A)
Format : MPEG Audio
Format version : Version 1
Format profile : Layer 2
Codec ID : 3
Duration : 42mn 21s
Bit rate mode : Constant
Bit rate : 192 Kbps
Channel(s) : 2 channels
Sampling rate : 48.0 KHz
Compression mode : Lossy
Stream size : 58.2 MiB (2%)
Language : Russian
-

Скриншоты сериала


-

[Цитировать]



Показать сообщения:    

Текущее время: 06-Дек 03:45

Часовой пояс: UTC + 3


Вы не можете начинать темы
Вы не можете отвечать на сообщения
Вы не можете редактировать свои сообщения
Вы не можете удалять свои сообщения
Вы не можете голосовать в опросах
Вы не можете прикреплять файлы к сообщениям
Вы не можете скачивать файлы

!ВНИМАНИЕ!
Сайт не предоставляет электронные версии произведений, а занимается лишь коллекционированием и каталогизацией ссылок, присылаемых и публикуемых на форуме нашими читателями. Если вы являетесь правообладателем какого-либо представленного материала и не желаете, чтобы ссылка на него находилась в нашем каталоге, свяжитесь с нами, и мы незамедлительно удалим ее. Файлы для обмена на трекере предоставлены пользователями сайта, и администрация не несет ответственности за их содержание. Просьба не заливать файлы, защищенные авторскими правами, а также файлы нелегального содержания!