[ Сегодня идет свободное скачивание без начисления Download ]


Статистика раздачи
Нет
 
   
 
Top  
 
 
Информация о фильме
Название: Бульвар
Оригинальное название: Boulevard
Год выхода: 2014
Жанр: драма
Режиссер: Дито Монтиель
В ролях: Робин Уильямс, Кэти Бэйкер, Боб Оденкёрк, Роберто Агуайр, Элеонор Хендрикс, Джиллз Мэттхи, Дж. Карен Томас, Генри Хаггард, Лэндон Маршалл, Брэндон Хирш
О фильме: Это грустная история человека, чья жизнь давно превратилась в серую рутину, но которая неожиданно меняется после знакомства героя с одним молодым парнем.

Выпущено: США / Camellia Entertainment, Evil Media Empire
Продолжительность: 01:28:08
Озвучивание: Любительское (многоголосое) [GreenРай Studio - Райм, Баира и Badcatstudio]
Файл
Формат: MPEG-4 AVC
Качество: Blu-Ray Remux 1080p
Видео: 28.7 Мбит/с, 1920x1080
Аудио: Русский (AC3, 6 ch, 448 Кбит/с), английский (AC3, 6 ch, 640 Кбит/с)

Скриншоты

MediaInfo

File: D:ВидеоBoulevard.2014.BDRemux.1080p.mkv
General
Unique ID : 234645790197725287095482841172345685603 (0xB08722A763079EA8856E0487A1150663)
Complete name : D:ВидеоBoulevard.2014.BDRemux.1080p.mkv
Format : Matroska
Format version : Version 4 / Version 2
File size : 16.0 GiB
Duration : 1h 28mn
Overall bit rate mode : Variable
Overall bit rate : 26.0 Mbps
Encoded date : UTC 2015-09-28 04:36:43
Writing application : mkvmerge v8.4.0 ('A better way to fly') 64bit
Writing library : libebml v1.3.1 + libmatroska v1.4.2
DURATION : 01:28:08.224000000
NUMBER_OF_FRAMES : 165257
NUMBER_OF_BYTES : 423057920
_STATISTICS_WRITING_APP : mkvmerge v8.4.0 ('A better way to fly') 64bit
_STATISTICS_WRITING_DATE_UTC : 2015-09-28 04:36:43
_STATISTICS_TAGS : BPS DURATION NUMBER_OF_FRAMES NUMBER_OF_BYTES
Video
ID : 1
Format : AVC
Format/Info : Advanced Video Codec
Format profile : High@L4.1
Format settings, CABAC : Yes
Format settings, ReFrames : 2 frames
Codec ID : V_MPEG4/ISO/AVC
Duration : 1h 28mn
Bit rate mode : Variable
Bit rate : 24.3 Mbps
Width : 1 920 pixels
Height : 1 080 pixels
Display aspect ratio : 16:9
Frame rate mode : Constant
Frame rate : 23.976 fps
Color space : YUV
Chroma subsampling : 4:2:0
Bit depth : 8 bits
Scan type : Progressive
Bits/(Pixel*Frame) : 0.490
Stream size : 15.0 GiB (94%)
Default : Yes
Forced : No
Audio #1
ID : 2
Format : AC-3
Format/Info : Audio Coding 3
Mode extension : CM (complete main)
Format settings, Endianness : Big
Codec ID : A_AC3
Duration : 1h 28mn
Bit rate mode : Constant
Bit rate : 448 Kbps
Channel(s) : 6 channels
Channel positions : Front: L C R, Side: L R, LFE
Sampling rate : 48.0 KHz
Bit depth : 16 bits
Compression mode : Lossy
Delay relative to video : -1ms
Stream size : 282 MiB (2%)
Title : GreenРай Studio
Language : Russian
Default : Yes
Forced : No
Audio #2
ID : 3
Format : AC-3
Format/Info : Audio Coding 3
Mode extension : CM (complete main)
Format settings, Endianness : Big
Codec ID : A_AC3
Duration : 1h 28mn
Bit rate mode : Constant
Bit rate : 640 Kbps
Channel(s) : 6 channels
Channel positions : Front: L C R, Side: L R, LFE
Sampling rate : 48.0 KHz
Bit depth : 16 bits
Compression mode : Lossy
Delay relative to video : -1ms
Stream size : 403 MiB (2%)
Title : English AC3 5.1 640Kbps
Language : English
Default : No
Forced : No
Релиз от:

[Цитировать]



Показать сообщения:    

Текущее время: 11-Дек 05:10

Часовой пояс: UTC + 3


Вы не можете начинать темы
Вы не можете отвечать на сообщения
Вы не можете редактировать свои сообщения
Вы не можете удалять свои сообщения
Вы не можете голосовать в опросах
Вы не можете прикреплять файлы к сообщениям
Вы не можете скачивать файлы

!ВНИМАНИЕ!
Сайт не предоставляет электронные версии произведений, а занимается лишь коллекционированием и каталогизацией ссылок, присылаемых и публикуемых на форуме нашими читателями. Если вы являетесь правообладателем какого-либо представленного материала и не желаете, чтобы ссылка на него находилась в нашем каталоге, свяжитесь с нами, и мы незамедлительно удалим ее. Файлы для обмена на трекере предоставлены пользователями сайта, и администрация не несет ответственности за их содержание. Просьба не заливать файлы, защищенные авторскими правами, а также файлы нелегального содержания!