[ Сегодня идет свободное скачивание без начисления Download ]


Статистика раздачи
Нет
 
   
 
 
 
NBA Playoffs 2012: The Finals- -Oklahoma City Thunder vs. Miami Heat -Вид спорта: Баскетбол
Дата: 12.06.2012 - 21.06.2012
Комментарий: Профессиональный
Язык комментариев: Английский
Автор рипа/записи: собственный рип на материалы от i0umag- -Качество: HDRip
Формат: mkv
Видео кодек: 2-pass AVC x264
Аудио кодек: AC-3
Видео: 2000 kbps || 59.940 fps || 1024x576 || 1.78:1
Аудио: 448 Kbps || 48 KHz || 16 Bit || 5.1 channels-Сэмпл для оценки качества [30 sec - 12 Mb]

MediaInfo

Расположение: G:\NBA.2012\NBA.2012.Finals.Thunder.vs.Heat.576p.60fps\NBA.2012.06.12.Finals.G1.Heat.vs.Thunder.576p.60fps.mkv
Имя файла: NBA.2012.06.12.Finals.G1.Heat.vs.Thunder.576p.60fps.mkv
Формат файла: .mkv (Matroska)
Размер файла: 2.11 GB
Длительность: 2h 0mn
Навигация по главам: Нет
Bitrate (все потоки): 2 500 Kbps
Файл создан...: UTC 2012-06-15 10:00:07
...при помощи: mkvmerge v5.5.0 ('Healer') built on Apr  6 2012 21:43:24
...с использованием: libebml v1.2.3 + libmatroska v1.3.0
Название: NBA 2012 06 12 Finals G1 Heat at Thunder 576p
Тип потока: Видео
Длительность: 02:00:34
Кодек: AVC
Кодек/Профиль: High@L4.0
Кодек/ID: V_MPEG4/ISO/AVC
Размеры изображения: 1024 x 576 (16:9)
Частота кадров: 59.940 fps
Размер потока: 1.69 GiB (80%)
Битрейт: 2 048 Kbps
Библиотека кодирования: x264 core 124 r2197 69a0443
Настройки кодирования: cabac=1 / ref=5 / deblock=1:-2:-2 / analyse=0x3:0x133 / me=umh / subme=10 / psy=1 / psy_rd=1.00:0.00 / mixed_ref=1 / me_range=32 / chroma_me=1 / trellis=2 / 8x8dct=1 / cqm=0 / deadzone=21,11 / fast_pskip=1 / chroma_qp_offset=-2 / threads=6 / sliced_threads=0 / nr=0 / decimate=1 / interlaced=0 / bluray_compat=0 / constrained_intra=0 / bframes=3 / b_pyramid=0 / b_adapt=2 / b_bias=0 / direct=1 / weightb=1 / open_gop=0 / weightp=2 / keyint=600 / keyint_min=60 / scenecut=40 / intra_refresh=0 / rc_lookahead=50 / rc=2pass / mbtree=1 / bitrate=2048 / ratetol=1.0 / qcomp=0.60 / qpmin=10 / qpmax=51 / qpstep=4 / cplxblur=20.0 / qblur=0.5 / vbv_maxrate=25000 / vbv_bufsize=25000 / nal_hrd=none / ip_ratio=1.40 / aq=1:1.00
Тип потока: Звук #1
Длительность: 02:00:34.784
Кодек: AC-3
Кодек/ID: A_AC3
Частота дискретизации: 48.0 KHz
Каналов: 6 channels
Битрейт: 448 Kbps
Размер потока: 386 MiB (18%)

Game №1. 2012.06.12. Miami Heat @ Oklahoma City Thunder

Arena: Chesapeake Energy Arena, Oklahoma City, OK
Officials: #13 Monty McCutchen, #9 Derrick Stafford, #14 Ed Malloy
Attendance: 18203

Составы

  • Miami Heat
  • Shane Battier, SF
  • LeBron James, SF
  • Udonis Haslem, PF
  • Dwyane Wade, SG
  • Mario Chalmers, PG-
  • Oklahoma City Thunder
  • Kevin Durant, SF
  • Serge Ibaka, PF
  • Kendrick Perkins, C
  • Thabo Sefolosha, SG
  • Russell Westbrook, PG

Продолжительность

02:00:34

Результат и Статистика

Скриншоты

Game №2. 2012.06.14. Miami Heat @ Oklahoma City Thunder

Arena: Chesapeake Energy Arena, Oklahoma City, OK
Officials: #43 Dan Crawford, #25 Tony Brothers, #49 Tom Washington
Attendance: 18203

Составы

  • Miami Heat
  • Shane Battier, SF
  • LeBron James, SF
  • Chris Bosh, PF
  • Dwyane Wade, SG
  • Mario Chalmers, PG-
  • Oklahoma City Thunder
  • Kevin Durant, SF
  • Serge Ibaka, PF
  • Kendrick Perkins, C
  • Thabo Sefolosha, SG
  • Russell Westbrook, PG

Продолжительность

02:07:54

Результат и Статистика

Скриншоты

Game №3. 2012.06.17. Oklahoma City Thunder @ Miami Heat

Arena: American Airlines Arena, Miami, FL
Officials: #17 Joe Crawford, #19 James Capers, #41 Ken Mauer
Attendance: 20003

Составы

  • Oklahoma City Thunder
  • Kevin Durant, SF
  • Serge Ibaka, PF
  • Kendrick Perkins, C
  • Thabo Sefolosha, SG
  • Russell Westbrook, PG-
  • Miami Heat
  • Shane Battier, SF
  • LeBron James, SF
  • Chris Bosh, PF
  • Dwyane Wade, SG
  • Mario Chalmers, PG

Продолжительность

02:07:31

Результат и Статистика

Скриншоты

Game №4. 2012.06.19. Oklahoma City Thunder @ Miami Heat

Arena: American Airlines Arena, Miami, FL
Officials: #48 Scott Foster, #24 Mike Callahan, #55 Bill Kennedy
Attendance: 20003

Составы

  • Oklahoma City Thunder
  • Kevin Durant, SF
  • Serge Ibaka, PF
  • Kendrick Perkins, C
  • Thabo Sefolosha, SG
  • Russell Westbrook, PG-
  • Miami Heat
  • Shane Battier, SF
  • LeBron James, SF
  • Chris Bosh, PF
  • Dwyane Wade, SG
  • Mario Chalmers, PG

Продолжительность

02:05:10

Результат и Статистика

Скриншоты

Game №5. 2012.06.21. Oklahoma City Thunder @ Miami Heat

Arena: American Airlines Arena, Miami, FL
Officials: #43 Dan Crawford, #13 Monty McCutchen, #9 Derrick Stafford
Attendance: 20003

Составы

  • Oklahoma City Thunder
  • Kevin Durant, SF
  • Serge Ibaka, PF
  • Kendrick Perkins, C
  • Thabo Sefolosha, SG
  • Russell Westbrook, PG-
  • Miami Heat
  • Shane Battier, SF
  • LeBron James, SF
  • Chris Bosh, PF
  • Dwyane Wade, SG
  • Mario Chalmers, PG

Продолжительность

02:27:26

Результат и Статистика

Скриншоты

[Цитировать]



Показать сообщения:    

Текущее время: 07-Дек 21:17

Часовой пояс: UTC + 3


Вы не можете начинать темы
Вы не можете отвечать на сообщения
Вы не можете редактировать свои сообщения
Вы не можете удалять свои сообщения
Вы не можете голосовать в опросах
Вы не можете прикреплять файлы к сообщениям
Вы не можете скачивать файлы

!ВНИМАНИЕ!
Сайт не предоставляет электронные версии произведений, а занимается лишь коллекционированием и каталогизацией ссылок, присылаемых и публикуемых на форуме нашими читателями. Если вы являетесь правообладателем какого-либо представленного материала и не желаете, чтобы ссылка на него находилась в нашем каталоге, свяжитесь с нами, и мы незамедлительно удалим ее. Файлы для обмена на трекере предоставлены пользователями сайта, и администрация не несет ответственности за их содержание. Просьба не заливать файлы, защищенные авторскими правами, а также файлы нелегального содержания!