[ Сегодня идет свободное скачивание без начисления Download ]


Статистика раздачи
Нет
 
   
 
Top  
 
 
-Лунтик и его друзья (2013-2015) WEB-DLRip (7 сезон, серии 390-439) + (440-441 серия мультики 2015)- Страна: Россия
Год выпуска: 2013-2015
Жанр: Мультсериал, Анимация, Детский
Описание:
Новые увлекательные приключения Лунтика и его друзей. Они учатся дружить, помогать друг другу, слушаться взрослых и быть самостоятельными.
Режиссер: Дарина Шмидт, Екатерина Салабай
Персонажи: Лунтик, Кузя, Мила...
Роли озвучивали: Екатерина Гороховская, Елена Соловьева, Михаил Черняк, Елена Шульман

Продолжительность: Каждая серия 00:05:10
Качество видео: WEB-DLRip
Видеокодек: Xvid
Битрейт видео: ~1530 Кбит/сек
Размер кадра: 960х720
Аудиокодек: MP3, 2 канала
Битрейт аудио: 128 Кбит/сек, 2 канала

Список серий

1. Лунтик - Новые серии - 390 серия. Солёный чай.avi
2. Лунтик - Новые серии - 391 серия. Перчик.avi
3. Лунтик - Новые серии - 392 серия. Краденое солнышко.avi
4. Лунтик - Новые серии - 393 серия. На всякий случай.avi
5. Лунтик - Новые серии - 394 серия. Красивая Клава.avi
6. Лунтик - Новые серии - 395 серия. Клоуны.avi
7. Лунтик - Новые серии - 396 серия. Озорники.avi
8. Лунтик - Новые серии - 397 серия. Гигантская обезьяна.avi
9. Лунтик - Новые серии - 398 серия. Звездный дождь.avi
10. Лунтик - Новые серии - 399 серия. Листопад.avi
11. Лунтик - Новые серии - 400 серия. Радужные камни.avi
12. Лунтик - Новые серии - 401 серия. Позвать слона в гости.avi
13. Лунтик - Новые серии - 402 серия. Признание таланта.avi
14. Лунтик - Новые серии - 403 серия. Космические путешественники.avi
15. Лунтик - Новые серии - 404 серия. Каждому по планете.avi
16. Лунтик - Новые серии - 405 серия. 33 Жучка.avi
17. Лунтик - Новые серии - 406 серия. Чужой сундук.avi
18. Лунтик - Новые серии - 407 серия. Творческий подход.avi
19. Лунтик - Новые серии - 408 серия. Компания для Клавы.avi
20. Лунтик - Новые серии - 409 серия. Лишнее Время.avi
21. Лунтик - Новые серии - 410 серия. Настоящее морское дно.avi
22. Лунтик - Новые серии - 411 серия. Памятные вещи.avi
23. Лунтик - Новые серии - 412 серия. Только одну серию!.avi
24. Лунтик - Новые серии - 413 серия. Травожуйка.avi
25. Лунтик - Новые серии - 414 серия. Морские обитатели.avi
26. Лунтик - Новые серии - 415 серия. Книга рекордов.avi
27. Лунтик - Новые серии - 416 серия. Лесная полька.avi
28. Лунтик - Новые серии - 417 серия. Сами справимся.avi
29. Лунтик - Новые серии - 418 серия. Арбуз.avi
30. Лунтик - Новые серии - 419 серия. Капля.avi
31. Лунтик - Новые серии - 420 серия. Доброе воспитание.avi
32. Лунтик - Новые серии - 421 серия. Археологи.avi
33. Лунтик - Новые серии - 422 серия. Кумиры.avi
34. Лунтик - Новые серии - 423 серия. Могущественный Кузя.avi
35. Лунтик - Новые серии - 424 серия. Такая разная музыка.avi
36. Лунтик - Новые серии - 425 серия. Сыщик.avi
37. Лунтик - Новые серии - 426 серия. Бабочки бывают разными.avi
38. Лунтик - Новые серии - 427 серия. Гости из будущего.avi
39. Лунтик - Новые серии - 428 серия. Мастера добрых дел.avi
40. Лунтик - Новые серии - 429 серия. Заколдованная принцесса.avi
41. Лунтик - Новые серии - 430 серия. Чужаки.avi
42. Лунтик - Новые серии - 431 серия. Бабай.avi
43. Лунтик - Новые серии - 432 серия. Редкое цветение.avi
44. Лунтик - Новые серии - 433 серия. Актёрище.avi
45. Лунтик - Новые серии - 434 серия. Фоторепортер.avi
46. Лунтик - Новые серии - 435 серия. Мультипликаторы.avi
47. Лунтик - Новые серии - 436 серия. Тяжело в учении
48. Лунтик - Новые серии - 437 серия. Тайный помощник
49. Лунтик - Новые серии - 438 серия. Прогноз погоды
50. Лунтик - Новые серии - 439 серия. Страна игрушек
51. Лунтик - 440 серия. ФЕЯ. Мультики 2015
52. Лунтик - 441 серия. Волшебный костюм. Мультики 2015

MediaInfo

Общее
Полное имя : D:\Лунтик новые серии\Лунтик - Новые серии - 420 серия. Доброе воспитание.avi
Формат : AVI
Формат/Информация : Audio Video Interleave
Размер файла : 61,9 Мбайт
Продолжительность : 5 м. 10 с.
Общий поток : 1675 Кбит/сек
Программа кодирования : MEncoder SVN-r33883(20110719-gcc4.5.2)
Библиотека кодирования : MPlayer
Видео
Идентификатор : 0
Формат : MPEG-4 Visual
Профиль формата : Advanced Simple@L5
Параметр BVOP формата : 2
Параметр QPel формата : Нет
Параметр GMC формата : Без точки перехода
Параметр матрицы формата : Default (H.263)
Идентификатор кодека : XVID
Идентификатор кодека/Подсказка : XviD
Продолжительность : 5 м. 10 с.
Битрейт : 1535 Кбит/сек
Ширина : 960 пикселей
Высота : 720 пикселей
Соотношение сторон : 4:3
Частота кадров : 25,000 кадров/сек
Цветовое пространство : YUV
Субдискретизация насыщенности : 4:2:0
Битовая глубина : 8 бит
Тип развёртки : Прогрессивная
Метод сжатия : С потерями
Бит/(Пиксели*Кадры) : 0.089
Размер потока : 56,7 Мбайт (92%)
Библиотека кодирования : XviD 1.2.1 (UTC 2008-12-04)
Аудио
Идентификатор : 1
Формат : MPEG Audio
Версия формата : Version 1
Профиль формата : Layer 3
Режим : Joint stereo
Расширение режима : MS Stereo
Идентификатор кодека : 55
Идентификатор кодека/Подсказка : MP3
Продолжительность : 5 м. 10 с.
Вид битрейта : Постоянный
Битрейт : 128 Кбит/сек
Каналы : 2 канала
Частота : 44,1 КГц
Метод сжатия : С потерями
Задержка видео : 40 мс.
Размер потока : 4,73 Мбайт (8%)
Выравнивание : Соединение по промежуткам
Продолжительность промежутка : 26 мс. (0,65 видеокадр)
Время предзагрузки промежутка : 522 мс.
Библиотека кодирования : LAME3.98.4
Общее
Полное имя : D:\Лунтик новые серии\Лунтик - Новые серии - 421 серия. Археологи.avi
Формат : AVI
Формат/Информация : Audio Video Interleave
Размер файла : 61,2 Мбайт
Продолжительность : 5 м. 10 с.
Общий поток : 1656 Кбит/сек
Программа кодирования : MEncoder SVN-r33883(20110719-gcc4.5.2)
Библиотека кодирования : MPlayer
Видео
Идентификатор : 0
Формат : MPEG-4 Visual
Профиль формата : Advanced Simple@L5
Параметр BVOP формата : 2
Параметр QPel формата : Нет
Параметр GMC формата : Без точки перехода
Параметр матрицы формата : Default (H.263)
Идентификатор кодека : XVID
Идентификатор кодека/Подсказка : XviD
Продолжительность : 5 м. 10 с.
Битрейт : 1515 Кбит/сек
Ширина : 960 пикселей
Высота : 720 пикселей
Соотношение сторон : 4:3
Частота кадров : 25,000 кадров/сек
Цветовое пространство : YUV
Субдискретизация насыщенности : 4:2:0
Битовая глубина : 8 бит
Тип развёртки : Прогрессивная
Метод сжатия : С потерями
Бит/(Пиксели*Кадры) : 0.088
Размер потока : 56,0 Мбайт (92%)
Библиотека кодирования : XviD 1.2.1 (UTC 2008-12-04)
Аудио
Идентификатор : 1
Формат : MPEG Audio
Версия формата : Version 1
Профиль формата : Layer 3
Режим : Joint stereo
Расширение режима : MS Stereo
Идентификатор кодека : 55
Идентификатор кодека/Подсказка : MP3
Продолжительность : 5 м. 10 с.
Вид битрейта : Постоянный
Битрейт : 128 Кбит/сек
Каналы : 2 канала
Частота : 44,1 КГц
Метод сжатия : С потерями
Задержка видео : 40 мс.
Размер потока : 4,73 Мбайт (8%)
Выравнивание : Соединение по промежуткам
Продолжительность промежутка : 26 мс. (0,65 видеокадр)
Время предзагрузки промежутка : 522 мс.
Библиотека кодирования : LAME3.98.4
Общее
Полное имя : D:\Лунтик новые серии\Лунтик - Новые серии - 422 серия. Кумиры.avi
Формат : AVI
Формат/Информация : Audio Video Interleave
Размер файла : 66,1 Мбайт
Продолжительность : 5 м. 10 с.
Общий поток : 1787 Кбит/сек
Программа кодирования : MEncoder SVN-r33883(20110719-gcc4.5.2)
Библиотека кодирования : MPlayer
Видео
Идентификатор : 0
Формат : MPEG-4 Visual
Профиль формата : Advanced Simple@L5
Параметр BVOP формата : 2
Параметр QPel формата : Нет
Параметр GMC формата : Без точки перехода
Параметр матрицы формата : Default (H.263)
Идентификатор кодека : XVID
Идентификатор кодека/Подсказка : XviD
Продолжительность : 5 м. 10 с.
Битрейт : 1647 Кбит/сек
Ширина : 960 пикселей
Высота : 720 пикселей
Соотношение сторон : 4:3
Частота кадров : 25,000 кадров/сек
Цветовое пространство : YUV
Субдискретизация насыщенности : 4:2:0
Битовая глубина : 8 бит
Тип развёртки : Прогрессивная
Метод сжатия : С потерями
Бит/(Пиксели*Кадры) : 0.095
Размер потока : 60,9 Мбайт (92%)
Библиотека кодирования : XviD 1.2.1 (UTC 2008-12-04)
Аудио
Идентификатор : 1
Формат : MPEG Audio
Версия формата : Version 1
Профиль формата : Layer 3
Режим : Joint stereo
Расширение режима : MS Stereo
Идентификатор кодека : 55
Идентификатор кодека/Подсказка : MP3
Продолжительность : 5 м. 10 с.
Вид битрейта : Постоянный
Битрейт : 128 Кбит/сек
Каналы : 2 канала
Частота : 44,1 КГц
Метод сжатия : С потерями
Задержка видео : 40 мс.
Размер потока : 4,73 Мбайт (7%)
Выравнивание : Соединение по промежуткам
Продолжительность промежутка : 26 мс. (0,65 видеокадр)
Время предзагрузки промежутка : 522 мс.
Библиотека кодирования : LAME3.98.4
Общее
Полное имя : D:\Лунтик новые серии\Лунтик - Новые серии - 423 серия. Могущественный Кузя.avi
Формат : AVI
Формат/Информация : Audio Video Interleave
Размер файла : 59,1 Мбайт
Продолжительность : 5 м. 10 с.
Общий поток : 1599 Кбит/сек
Программа кодирования : MEncoder SVN-r33883(20110719-gcc4.5.2)
Библиотека кодирования : MPlayer
Видео
Идентификатор : 0
Формат : MPEG-4 Visual
Профиль формата : Advanced Simple@L5
Параметр BVOP формата : 2
Параметр QPel формата : Нет
Параметр GMC формата : Без точки перехода
Параметр матрицы формата : Default (H.263)
Идентификатор кодека : XVID
Идентификатор кодека/Подсказка : XviD
Продолжительность : 5 м. 10 с.
Битрейт : 1459 Кбит/сек
Ширина : 960 пикселей
Высота : 720 пикселей
Соотношение сторон : 4:3
Частота кадров : 25,000 кадров/сек
Цветовое пространство : YUV
Субдискретизация насыщенности : 4:2:0
Битовая глубина : 8 бит
Тип развёртки : Прогрессивная
Метод сжатия : С потерями
Бит/(Пиксели*Кадры) : 0.084
Размер потока : 53,9 Мбайт (91%)
Библиотека кодирования : XviD 1.2.1 (UTC 2008-12-04)
Аудио
Идентификатор : 1
Формат : MPEG Audio
Версия формата : Version 1
Профиль формата : Layer 3
Режим : Joint stereo
Расширение режима : MS Stereo
Идентификатор кодека : 55
Идентификатор кодека/Подсказка : MP3
Продолжительность : 5 м. 10 с.
Вид битрейта : Постоянный
Битрейт : 128 Кбит/сек
Каналы : 2 канала
Частота : 44,1 КГц
Метод сжатия : С потерями
Задержка видео : 40 мс.
Размер потока : 4,73 Мбайт (8%)
Выравнивание : Соединение по промежуткам
Продолжительность промежутка : 26 мс. (0,65 видеокадр)
Время предзагрузки промежутка : 522 мс.
Библиотека кодирования : LAME3.98.4
Скриншоты:

[Цитировать]



Показать сообщения:    

Текущее время: 07-Дек 17:31

Часовой пояс: UTC + 3


Вы не можете начинать темы
Вы не можете отвечать на сообщения
Вы не можете редактировать свои сообщения
Вы не можете удалять свои сообщения
Вы не можете голосовать в опросах
Вы не можете прикреплять файлы к сообщениям
Вы не можете скачивать файлы

!ВНИМАНИЕ!
Сайт не предоставляет электронные версии произведений, а занимается лишь коллекционированием и каталогизацией ссылок, присылаемых и публикуемых на форуме нашими читателями. Если вы являетесь правообладателем какого-либо представленного материала и не желаете, чтобы ссылка на него находилась в нашем каталоге, свяжитесь с нами, и мы незамедлительно удалим ее. Файлы для обмена на трекере предоставлены пользователями сайта, и администрация не несет ответственности за их содержание. Просьба не заливать файлы, защищенные авторскими правами, а также файлы нелегального содержания!