[ Сегодня идет свободное скачивание без начисления Download ]


Статистика раздачи
Нет
 
   
 
Top  
 
 
Топ Гир / Top Gear- Год выпуска: 2012
Страна: Великобритания
Жанр: развлечения, авто
Продолжительность: ~01:00:00 серия
Озвучивание: любительский многоголосый закадровый-Субтитры: отсутсвуют
Режиссёр: Энди Уилман
В ролях: Джереми Кларксон, Ричард Хаммонд, Джеймс Мэй и др.-
Aвто-шоу «Top Gear» — это программа абсолютно новой формации для телезрителей прогрессивного толка. В ней нет ни слова о недорогих семейных автомобилях, нет занудных советов автолюбителям, да и банального cлова «автолюбитель» в ней тоже нет.
Это программа для настоящих фанатов роскошных, безумно дорогих и самых быстрых автомобилей, для настоящих ценителей запаха бензина и пылающих тормозных дисков, для тех, кому не безразличен экстремальный драйв.
Эксперты программы, профессионалы высочайшего класса, способны вынести справедливый вердикт любому сверхсовременному спорткару.
--
* Перевод: Marky Mark и др.(1-ая серия), teftel и др.(2-ая серия), den1z и др.(3-я серия)
* Редактирование: 2strike
* Работа со звуком: 2strike

2strike - Джереми Кларксон
Inspector_Gadjet - Ричард Хаммонд
AnsverITO - Джеймс Мэй-Ni4kee - Уил Ай Эм(1-ая серия)
Zahar - Мэт Ли Бланк(2-ая серия)
Inspector_Gadjet - Райан Рейнольдс(3-я серия)--

01.


* Ведущие устраивают забег суперкаров в Италии — Lamborghini Aventador, McLaren MP4-12C и Noble M600.
* Знаменитость в бюджетном авто: will.i.am (рус. Уилл Ай Эм) — американский рэпер, актёр и музыкальный продюсер, один из создателей и солист хип-хоп-группы The Black Eyed Peas и владелец продюсерской компании «will.i.am music group».

02.


* Ричард Хаммонд отправляется в Техас, чтобы рассказать об американских гонках NASCAR.
* Джереми Кларксон и Джеймс Мэй приезжают в Пекин, чтобы изучить китайский автопром.
* Mercedes-Benz SLS AMG Roadster на треке Top Gear в обзоре Кларксона.
* Знаменитость в бюджетном авто: Мэтт ЛеБлан, американский актер, известный по сериалам "Друзья" и "Эпизоды".

03.

* Джеймс Мэй выносит своей вердикт Vauxhall Corsa VXR Nurburgring и новой Fiat Panda.
* Джереми и Ричард принимают участие в съемках фильма The Sweeney, отвечая за автомобильные погони и пиротехнику.
* Знаменитость в бюджетном авто: Райан Рейнольдс, голливудский актер канадского происхождения.

04.


* Джеймс Мэй отправляется во Флориду для теста гибридного Fisker Karma, где встречается с фронтменом AC/DC Брайаном Джонсоном и его Bentley 1928 года.
* Ведущие проектируют собственные моторизированные инвалидные кресла для жизни за городом.
* Джереми Кларксон испытывает Ferrari FF и Bentley Continental GT V8 за полярным кругом.
* Знаменитость в бюджетном авто: Майкл Фассбендер, ирландский актер немецкого происхождения.

05.


* Джереми Кларксон и Джеймс Мэй вспоминают почивший автоконцерн SAAB.
* Ричард Хаммонд в качестве пассажира раллийной Skoda Fabia в гонке против летающего человека с реактивным ранцем.
* Джереми Кларксон выпускает на трек Maserati Gran Turismo MC Stradale и Mercedes-Benz C63 AMG Black Series.
* Знаменитость в бюджетном авто: Мэтт Смит, актер из сериала «Доктор Кто».

06.


* Ведущие выбираются на гоночный день на трек Донингтон на подходящих авто: Caterham R500, KTM X-Bow и Morgan 3 Wheeler.
* Джереми Кларксон воссоздает свою версию «Битвы за Британию» при помощи исторических английских авто.
* Знаменитость в бюджетном авто: Алекс Джеймс, музыкант из группы Blur.

07.


* Ричард Хаммонд рассказывает о новой BMW M5.
* Джеймс Мэй одалживает Ferrari 250 California у радиоведущего Криса Эванса.
* Ведущие выясняют, можно ли потратить на участие в автогонках меньше, чем на игру в гольф.
* Гонщик Формулы-1 в бюджетном авто: Кими Райкконен.
* Знаменитость в бюджетном авто: Слэш, рок-музыкант.
-
Качество: HDTVRip Sample
Формат: AVI
Видео кодек: XviD
Аудио кодек: Mp3
Видео: 720 x 400, 25,000 fps, 1670 kbps, 0.23 bit/pixel
Аудио rus: 48 kHz, 2 ch, 192 kbps
Аудио eng: 48 kHz, 2 ch, 192 Kbps-

MI

Общее
Полное имя : D:\DeepVoiceTV\Релизы\Топ Гир (Top Gear)\TopGear.s18e1.HDTVRip.DeepVoiceTV.Rus.Eng.avi
Формат : AVI
Формат/Информация : Audio Video Interleave
Размер файла : 939 Мбайт
Продолжительность : 1 ч. 2 м.
Режим общего битрейта : Переменный
Общий поток : 2100 Кбит/сек
Программа кодирования : VirtualDubMod 1.5.10.2 (build 2540/release)
Библиотека кодирования : VirtualDubMod build 2540/release
Видео
Идентификатор : 0
Формат : MPEG-4 Visual
Профиль формата : Advanced Simple@L5
Параметр BVOP формата : 2
Параметр QPel формата : Нет
Параметр GMC формата : Без точки перехода
Параметр матрицы формата : Default (H.263)
Идентификатор кодека : XVID
Идентификатор кодека/Подсказка : XviD
Продолжительность : 1 ч. 2 м.
Битрейт : 1699 Кбит/сек
Ширина : 720 пикселей
Высота : 400 пикселей
Соотношение сторон : 16:9
Частота кадров : 25,000 кадров/сек
Цветовое пространство : YUV
Субдискретизация насыщенности : 4:2:0
Битовая глубина : 8 бит
Тип развёртки : Прогрессивная
Метод сжатия : С потерями
Бит/(Пиксели*Кадры) : 0.236
Размер потока : 759 Мбайт (81%)
Библиотека кодирования : XviD 64
Аудио #1
Идентификатор : 1
Формат : MPEG Audio
Версия формата : Version 1
Профиль формата : Layer 3
Режим : Joint stereo
Расширение режима : MS Stereo
Идентификатор кодека : 55
Идентификатор кодека/Подсказка : MP3
Продолжительность : 1 ч. 2 м.
Вид битрейта : Переменный
Битрейт : 192 Кбит/сек
Каналы : 2 канала
Частота : 48,0 КГц
Метод сжатия : С потерями
Размер потока : 85,8 Мбайт (9%)
Выравнивание : Разделение по промежуткам
Продолжительность промежутка : 40 мс. (1,00 видеокадр)
Время предзагрузки промежутка : 500 мс.
Библиотека кодирования : LAME3.98.2
Аудио #2
Идентификатор : 2
Формат : MPEG Audio
Версия формата : Version 1
Профиль формата : Layer 3
Режим : Joint stereo
Расширение режима : MS Stereo
Идентификатор кодека : 55
Идентификатор кодека/Подсказка : MP3
Продолжительность : 1 ч. 2 м.
Вид битрейта : Постоянный
Битрейт : 192 Кбит/сек
Каналы : 2 канала
Частота : 48,0 КГц
Метод сжатия : С потерями
Размер потока : 85,8 Мбайт (9%)
Выравнивание : Соединение по промежуткам
Продолжительность промежутка : 24 мс. (0,60 видеокадр)
Время предзагрузки промежутка : 504 мс.
Библиотека кодирования : LAME3.98.2
--
-

[Цитировать]



Показать сообщения:    

Текущее время: 21-Июл 02:42

Часовой пояс: UTC + 6


Вы не можете начинать темы
Вы не можете отвечать на сообщения
Вы не можете редактировать свои сообщения
Вы не можете удалять свои сообщения
Вы не можете голосовать в опросах
Вы не можете прикреплять файлы к сообщениям
Вы не можете скачивать файлы

!ВНИМАНИЕ!
Сайт не предоставляет электронные версии произведений, а занимается лишь коллекционированием и каталогизацией ссылок, присылаемых и публикуемых на форуме нашими читателями. Если вы являетесь правообладателем какого-либо представленного материала и не желаете, чтобы ссылка на него находилась в нашем каталоге, свяжитесь с нами, и мы незамедлительно удалим ее. Файлы для обмена на трекере предоставлены пользователями сайта, и администрация не несет ответственности за их содержание. Просьба не заливать файлы, защищенные авторскими правами, а также файлы нелегального содержания!