[ Сегодня идет свободное скачивание без начисления Download ]


Статистика раздачи
Нет
 
   
 
 
 
Топ Гир сезон 18 / Top Gear S18E01-07
Страна: Великобритания
Режиссер: Энди Уилман
Жанр: Телевизионное авто-шоу
В ролях: Джереми Кларксон, Ричард Хаммонд, Джеймс Мэй
Год выпуска: 2012
Продолжительность: ~1 час
Перевод: Отсутствует
Cубтитры: русские
Описание: Aвто-шоу «Top Gear» — это программа абсолютно новой формации для телезрителей прогрессивного толка. В ней нет ни слова о недорогих семейных автомобилях, нет занудных советов автолюбителям, да и банального cлова «автолюбитель» в ней тоже нет.
Это программа для настоящих фанатов роскошных, безумно дорогих и самых быстрых автомобилей, для настоящих ценителей запаха бензина и пылающих тормозных дисков, для тех, кому не безразличен экстремальный драйв.
Эксперты программы, профессионалы высочайшего класса, способны вынести справедливый вердикт любому сверхсовременному спорткару.

Доп. информация: Автор - CtrlHD.
Качество видео: HDTV
Формат видео: TS
Видео: 1440x1080 at 25.000 fps, MPEG-4 AVC, ~8 Mbps avg
Аудио: English: 48 kHz, AC3, 2/0 (L,R) ch, ~192.00 kbps avg

Episode 1

? Ведущие устраивают забег суперкаров по Италии — Lamborghini Aventador, McLaren MP4-12C и Noble M600. В программе их посещения — исторический город Лечче, испытательный трек Нардо, центральная часть Рима и трасса Формулы-1 в Имоле.
? Знаменитость в бюджетном авто: will.i.am, музыкант и продюсер из группы Black Eyed Peas.

MediaInfo

General #1
ID : 1 (0x1)
Complete name : Top.Gear.S18E01.1080i.HDTV.DD2.0.H.264\Top.Gear.S18E01.1080i.HDTV.DD2.0.H.264.ts
Format : MPEG-TS
File size : 3.70 GiB
Duration : 1h 2mn
Overall bit rate : 8 472 Kbps
Video #5500
ID : 5500 (0x157C)
Menu ID : 1 (0x1)
Format : AVC
Format/Info : Advanced Video Codec
Format profile : High@L4.0
Format settings, CABAC : Yes
Format settings, ReFrames : 4 frames
Codec ID : 27
Duration : 1h 2mn
Bit rate : 7 859 Kbps
Width : 1 440 pixels
Height : 1 080 pixels
Display aspect ratio : 16:9
Frame rate : 25.000 fps
Color space : YUV
Chroma subsampling : 4:2:0
Bit depth : 8 bits
Scan type : MBAFF
Scan order : Top Field First
Bits/(Pixel*Frame) : 0.202
Stream size : 3.43 GiB (93%)
Color primaries : BT.709-5, BT.1361, IEC 61966-2-4, SMPTE RP177
Transfer characteristics : BT.709-5, BT.1361
Matrix coefficients : BT.709-5, BT.1361, IEC 61966-2-4 709, SMPTE RP177
Audio #5501
ID : 5501 (0x157D)
Menu ID : 1 (0x1)
Format : AC-3
Format/Info : Audio Coding 3
Mode extension : CM (complete main)
Codec ID : 6
Duration : 1h 2mn
Bit rate mode : Constant
Bit rate : 192 Kbps
Channel(s) : 2 channels
Channel positions : Front: L R
Sampling rate : 48.0 KHz
Bit depth : 16 bits
Compression mode : Lossy
Stream size : 85.8 MiB (2%)
Language : English

Episode 2

? Ричард Хаммонд отправляется в Техас, чтобы рассказать об американских гонках NASCAR.
? Джереми Кларксон и Джеймс Мэй приезжают в Пекин, чтобы изучить китайский автопром.
? Mercedes-Benz SLS AMG Roadster на треке Top Gear в обзоре Кларксона.
? Знаменитость в бюджетном авто: Мэтт ЛеБлан, американский актер, известный по сериалу «Друзья».

MediaInfo

General #1
ID : 1 (0x1)
Complete name : Top.Gear.S18.1080i.HDTV.DD2.0.H.264\Top.Gear.S18E02.1080i.HDTV.DD2.0.H.264.ts
Format : MPEG-TS
File size : 3.50 GiB
Duration : 1h 1mn
Overall bit rate : 8 107 Kbps
Video #5500
ID : 5500 (0x157C)
Menu ID : 1 (0x1)
Format : AVC
Format/Info : Advanced Video Codec
Format profile : High@L4.0
Format settings, CABAC : Yes
Format settings, ReFrames : 4 frames
Codec ID : 27
Duration : 1h 1mn
Bit rate : 7 513 Kbps
Width : 1 440 pixels
Height : 1 080 pixels
Display aspect ratio : 16:9
Frame rate : 25.000 fps
Color space : YUV
Chroma subsampling : 4:2:0
Bit depth : 8 bits
Scan type : MBAFF
Scan order : Top Field First
Bits/(Pixel*Frame) : 0.193
Stream size : 3.25 GiB (93%)
Color primaries : BT.709-5, BT.1361, IEC 61966-2-4, SMPTE RP177
Transfer characteristics : BT.709-5, BT.1361
Matrix coefficients : BT.709-5, BT.1361, IEC 61966-2-4 709, SMPTE RP177
Audio #5501
ID : 5501 (0x157D)
Menu ID : 1 (0x1)
Format : AC-3
Format/Info : Audio Coding 3
Mode extension : CM (complete main)
Codec ID : 6
Duration : 1h 1mn
Bit rate mode : Constant
Bit rate : 192 Kbps
Channel(s) : 2 channels
Channel positions : Front: L R
Sampling rate : 48.0 KHz
Bit depth : 16 bits
Compression mode : Lossy
Stream size : 84.9 MiB (2%)
Language : English

Episode 3

? Джеймс Мэй выносит своей вердикт Vauxhall Corsa VXR Nurburgring и новой Fiat Panda.
? Джереми и Ричард принимают участие в съемках фильма The Sweeney, отвечая за автомобильные погони и пиротехнику.
? Знаменитость в бюджетном авто: Райан Рейнольдс, голливудский актер канадского происхождения.

MediaInfo

General #1
ID : 1 (0x1)
Complete name :Top.Gear.S18.1080i.HDTV.DD2.0.H.264\Top.Gear.S18E03.1080i.HDTV.DD2.0.H.264.ts
Format : MPEG-TS
File size : 3.28 GiB
Duration : 1h 1mn
Overall bit rate : 7 632 Kbps
Video #5500
ID : 5500 (0x157C)
Menu ID : 1 (0x1)
Format : AVC
Format/Info : Advanced Video Codec
Format profile : High@L4.0
Format settings, CABAC : Yes
Format settings, ReFrames : 4 frames
Codec ID : 27
Duration : 1h 1mn
Bit rate : 7 061 Kbps
Width : 1 440 pixels
Height : 1 080 pixels
Display aspect ratio : 16:9
Frame rate : 25.000 fps
Color space : YUV
Chroma subsampling : 4:2:0
Bit depth : 8 bits
Scan type : MBAFF
Scan order : Top Field First
Bits/(Pixel*Frame) : 0.182
Stream size : 3.03 GiB (93%)
Color primaries : BT.709-5, BT.1361, IEC 61966-2-4, SMPTE RP177
Transfer characteristics : BT.709-5, BT.1361
Matrix coefficients : BT.709-5, BT.1361, IEC 61966-2-4 709, SMPTE RP177
Audio #5501
ID : 5501 (0x157D)
Menu ID : 1 (0x1)
Format : AC-3
Format/Info : Audio Coding 3
Mode extension : CM (complete main)
Codec ID : 6
Duration : 1h 1mn
Bit rate mode : Constant
Bit rate : 192 Kbps
Channel(s) : 2 channels
Channel positions : Front: L R
Sampling rate : 48.0 KHz
Bit depth : 16 bits
Compression mode : Lossy
Stream size : 84.5 MiB (3%)
Language : English

Episode 4

? Джеймс Мэй отправляется во Флориду для теста гибридного Fisker Karma, где встречается с фронтменом AC/DC Брайаном Джонсоном и его Bentley 1928 года.
? Ведущие проектируют собственные моторизированные инвалидные кресла для жизни за городом.
? Джереми Кларксон испытывает Ferrari FF и Bentley Continental GT V8 за полярным кругом.
? Знаменитость в бюджетном авто: Майкл Фассбендер, ирландский актер немецкого происхождения.

MediaInfo

General #1
ID : 1 (0x1)
Complete name :Top.Gear.S18.1080i.HDTV.DD2.0.H.264\Top.Gear.S18E04.1080i.HDTV.DD2.0.H.264.ts
Format : MPEG-TS
File size : 3.57 GiB
Duration : 1h 2mn
Overall bit rate : 8 171 Kbps
Video #5500
ID : 5500 (0x157C)
Menu ID : 1 (0x1)
Format : AVC
Format/Info : Advanced Video Codec
Format profile : High@L4.0
Format settings, CABAC : Yes
Format settings, ReFrames : 4 frames
Codec ID : 27
Duration : 1h 2mn
Bit rate : 7 574 Kbps
Width : 1 440 pixels
Height : 1 080 pixels
Display aspect ratio : 16:9
Frame rate : 25.000 fps
Color space : YUV
Chroma subsampling : 4:2:0
Bit depth : 8 bits
Scan type : MBAFF
Scan order : Top Field First
Bits/(Pixel*Frame) : 0.195
Stream size : 3.31 GiB (93%)
Color primaries : BT.709-5, BT.1361, IEC 61966-2-4, SMPTE RP177
Transfer characteristics : BT.709-5, BT.1361
Matrix coefficients : BT.709-5, BT.1361, IEC 61966-2-4 709, SMPTE RP177
Audio #5501
ID : 5501 (0x157D)
Menu ID : 1 (0x1)
Format : AC-3
Format/Info : Audio Coding 3
Mode extension : CM (complete main)
Codec ID : 6
Duration : 1h 2mn
Bit rate mode : Constant
Bit rate : 192 Kbps
Channel(s) : 2 channels
Channel positions : Front: L R
Sampling rate : 48.0 KHz
Bit depth : 16 bits
Compression mode : Lossy
Stream size : 85.8 MiB (2%)
Language : English

Episode 5

? Джереми Кларксон и Джеймс Мэй вспоминают почивший автоконцерн SAAB.
? Ричард Хаммонд в качестве пассажира раллийной Skoda Fabia в гонке против летающего человека с реактивным ранцем.
? Джереми Кларксон выпускает на трек Maserati Gran Turismo MC Stradale и Mercedes-Benz C63 AMG Black Series.
? Знаменитость в бюджетном авто: Мэтт Смит, актер из сериала «Доктор Кто».

MediaInfo

General #1
ID : 1 (0x1)
Complete name : Top.Gear.S18.1080i.HDTV.DD2.0.H.264\Top.Gear.S18E05.1080i.HDTV.DD2.0.H.264.ts
Format : MPEG-TS
File size : 3.54 GiB
Duration : 59mn 31s
Overall bit rate : 8 506 Kbps
Video #5500
ID : 5500 (0x157C)
Menu ID : 1 (0x1)
Format : AVC
Format/Info : Advanced Video Codec
Format profile : High@L4.0
Format settings, CABAC : Yes
Format settings, ReFrames : 4 frames
Codec ID : 27
Duration : 59mn 31s
Bit rate : 7 892 Kbps
Width : 1 440 pixels
Height : 1 080 pixels
Display aspect ratio : 16:9
Frame rate : 25.000 fps
Color space : YUV
Chroma subsampling : 4:2:0
Bit depth : 8 bits
Scan type : MBAFF
Scan order : Top Field First
Bits/(Pixel*Frame) : 0.203
Stream size : 3.28 GiB (93%)
Color primaries : BT.709-5, BT.1361, IEC 61966-2-4, SMPTE RP177
Transfer characteristics : BT.709-5, BT.1361
Matrix coefficients : BT.709-5, BT.1361, IEC 61966-2-4 709, SMPTE RP177
Audio #5501
ID : 5501 (0x157D)
Menu ID : 1 (0x1)
Format : AC-3
Format/Info : Audio Coding 3
Mode extension : CM (complete main)
Codec ID : 6
Duration : 59mn 31s
Bit rate mode : Constant
Bit rate : 192 Kbps
Channel(s) : 2 channels
Channel positions : Front: L R
Sampling rate : 48.0 KHz
Bit depth : 16 bits
Compression mode : Lossy
Stream size : 81.8 MiB (2%)
Language : English

Episode 6

? Ведущие выбираются на гоночный день на трек Донингтон на подходящих авто: Caterham R500, KTM X-Bow и Morgan 3 Wheeler.
? Джереми Кларксон воссоздает свою версию «Битвы за Британию» при помощи исторических английских авто.
? Знаменитость в бюджетном авто: Алекс Джеймс, музыкант из группы Blur.

MediaInfo

General #1
ID : 1 (0x1)
Complete name : Top.Gear.S18.1080i.HDTV.DD2.0.H.264\Top.Gear.S18E06.1080i.HDTV.DD2.0.H.264.ts
Format : MPEG-TS
File size : 3.36 GiB
Duration : 1h 1mn
Overall bit rate : 7 848 Kbps
Video #5500
ID : 5500 (0x157C)
Menu ID : 1 (0x1)
Format : AVC
Format/Info : Advanced Video Codec
Format profile : High@L4.0
Format settings, CABAC : Yes
Format settings, ReFrames : 4 frames
Codec ID : 27
Duration : 1h 1mn
Bit rate : 7 267 Kbps
Width : 1 440 pixels
Height : 1 080 pixels
Display aspect ratio : 16:9
Frame rate : 25.000 fps
Color space : YUV
Chroma subsampling : 4:2:0
Bit depth : 8 bits
Scan type : MBAFF
Scan order : Top Field First
Bits/(Pixel*Frame) : 0.187
Stream size : 3.11 GiB (93%)
Color primaries : BT.709-5, BT.1361, IEC 61966-2-4, SMPTE RP177
Transfer characteristics : BT.709-5, BT.1361
Matrix coefficients : BT.709-5, BT.1361, IEC 61966-2-4 709, SMPTE RP177
Audio #5501
ID : 5501 (0x157D)
Menu ID : 1 (0x1)
Format : AC-3
Format/Info : Audio Coding 3
Mode extension : CM (complete main)
Codec ID : 6
Duration : 1h 1mn
Bit rate mode : Constant
Bit rate : 192 Kbps
Channel(s) : 2 channels
Channel positions : Front: L R
Sampling rate : 48.0 KHz
Bit depth : 16 bits
Compression mode : Lossy
Stream size : 84.2 MiB (2%)
Language : English

Episode 7

? Ричард Хаммонд рассказывает о новой BMW M5.
? Джеймс Мэй одалживает Ferrari 250 California у радиоведущего Криса Эванса.
? Ведущие выясняют, можно ли потратить на участие в автогонках меньше, чем на игру в гольф.
? Гонщик Формулы-1 в бюджетном авто: Кими Райкконен.
? Знаменитость в бюджетном авто: Слэш, рок-музыкант.

MediaInfo

General #1
ID : 1 (0x1)
Complete name : Top.Gear.S18.1080i.HDTV.DD2.0.H.264\Top.Gear.S18E07.1080i.HDTV.DD2.0.H.264.ts
Format : MPEG-TS
File size : 3.51 GiB
Duration : 1h 1mn
Overall bit rate : 8 209 Kbps
Video #5500
ID : 5500 (0x157C)
Menu ID : 1 (0x1)
Format : AVC
Format/Info : Advanced Video Codec
Format profile : High@L4.0
Format settings, CABAC : Yes
Format settings, ReFrames : 4 frames
Codec ID : 27
Duration : 1h 1mn
Bit rate : 7 609 Kbps
Width : 1 440 pixels
Height : 1 080 pixels
Display aspect ratio : 16:9
Frame rate : 25.000 fps
Color space : YUV
Chroma subsampling : 4:2:0
Bit depth : 8 bits
Scan type : MBAFF
Scan order : Top Field First
Bits/(Pixel*Frame) : 0.196
Stream size : 3.26 GiB (93%)
Color primaries : BT.709-5, BT.1361, IEC 61966-2-4, SMPTE RP177
Transfer characteristics : BT.709-5, BT.1361
Matrix coefficients : BT.709-5, BT.1361, IEC 61966-2-4 709, SMPTE RP177
Audio #5501
ID : 5501 (0x157D)
Menu ID : 1 (0x1)
Format : AC-3
Format/Info : Audio Coding 3
Mode extension : CM (complete main)
Codec ID : 6
Duration : 1h 1mn
Bit rate mode : Constant
Bit rate : 192 Kbps
Channel(s) : 2 channels
Channel positions : Front: L R
Sampling rate : 48.0 KHz
Bit depth : 16 bits
Compression mode : Lossy
Stream size : 84.1 MiB (2%)
Language : English

[Цитировать]



Показать сообщения:    

Текущее время: 02-Дек 22:51

Часовой пояс: UTC + 3


Вы не можете начинать темы
Вы не можете отвечать на сообщения
Вы не можете редактировать свои сообщения
Вы не можете удалять свои сообщения
Вы не можете голосовать в опросах
Вы не можете прикреплять файлы к сообщениям
Вы не можете скачивать файлы

!ВНИМАНИЕ!
Сайт не предоставляет электронные версии произведений, а занимается лишь коллекционированием и каталогизацией ссылок, присылаемых и публикуемых на форуме нашими читателями. Если вы являетесь правообладателем какого-либо представленного материала и не желаете, чтобы ссылка на него находилась в нашем каталоге, свяжитесь с нами, и мы незамедлительно удалим ее. Файлы для обмена на трекере предоставлены пользователями сайта, и администрация не несет ответственности за их содержание. Просьба не заливать файлы, защищенные авторскими правами, а также файлы нелегального содержания!