[ Сегодня идет свободное скачивание без начисления Download ]


Статистика раздачи
Нет
 
   
 
 
 
-Top Gear - 50 Years of Bond Cars
Топ Гир - 50 летие автомобилей Бонда
-- Год выпуска: 2012
Страна: Великобритания
Жанр: Развлекательное авто-шоу
Продолжительность: 00:44:03
Перевод: Профессиональный (двухголосый закадровый) Discovery Channel Russia
Cубтитры: Отсутствуют
Оригинальная аудио дорожка: английский-В ролях: Ричард Хаммонд, Дэниэл Крейг, Роджер Мур-Описание: В специальном выпуске Top Gear Ричард Хаммонд отмечает 50-летие Бондиады, вспоминая легендарные автомобили агента 007. Он также встретится с Дэниэлом Крейгом и Роджером Муром, получит эксклюзивный доступ за кулисы последнего фильма Бондиады "Координаты «Скайфолл»" и даже протестирует настоящую субмарину сделанную из Lorus Esprit.- -Качество: DVB
Формат: MPEG-TS
Видео: MPEG2 Video, 720x576 (4:3), 25.00fps, ~3500 Kbps avg, 0.341 bit/pixel
Аудио 1: MPEG Audio Layer 2, 48000Hz stereo, ~192kbps avg [RUS]
Аудио 2: MPEG Audio Layer 2, 48000Hz stereo, ~192kbps avg [ENG]- -

MediaInfo

Общее
Идентификатор                            : 1 (0x1)
Полное имя                               : Top Gear. Машины Джеймса Бонда [DVB.RUS-ENG].ts
Формат                                   : MPEG-TS
Размер файла                             : 1,27 Гбайт
Продолжительность                        : 44 м.
Режим общего битрейта                    : Переменный
Общий поток                              : 4128 Кбит/сек
Максимальный общий битрейт               : 35,5 Мбит/сек
Видео
Идентификатор                            : 4113 (0x1011)
Идентификатор меню                       : 1 (0x1)
Формат                                   : MPEG Video
Версия формата                           : Version 2
Профиль формата                          : Main@Main
Параметр BVOP формата                    : Да
Параметр матрицы формата                 : Выборочная
Параметр GOP формата                     : Variable
Идентификатор кодека                     : 2
Продолжительность                        : 44 м.
Вид битрейта                             : Переменный
Битрейт                                  : 3536 Кбит/сек
Максимальный битрейт                     : 15,0 Мбит/сек
Ширина                                   : 720 пикселей
Высота                                   : 576 пикселей
Соотношение сторон                       : 4:3
Частота кадров                           : 25,000 кадров/сек
Стандарт вещания                         : PAL
Цветовое пространство                    : YUV
Субдискретизация насыщенности            : 4:2:0
Битовая глубина                          : 8 бит
Тип развёртки                            : Чересстрочная
Порядок развёртки                        : Верхнее поле первое
Метод сжатия                             : С потерями
Бит/(Пиксели*Кадры)                      : 0.341
Размер потока                            : 1,09 Гбайт (86%)
Аудио #1
Идентификатор                            : 4352 (0x1100)
Идентификатор меню                       : 1 (0x1)
Формат                                   : MPEG Audio
Версия формата                           : Version 1
Профиль формата                          : Layer 2
Идентификатор кодека                     : 4
Продолжительность                        : 44 м.
Вид битрейта                             : Постоянный
Битрейт                                  : 192 Кбит/сек
Каналы                                   : 2 канала
Частота                                  : 48,0 КГц
Метод сжатия                             : С потерями
Размер потока                            : 60,5 Мбайт (5%)
Язык                                     : Russian
Аудио #2
Идентификатор                            : 4353 (0x1101)
Идентификатор меню                       : 1 (0x1)
Формат                                   : MPEG Audio
Версия формата                           : Version 1
Профиль формата                          : Layer 2
Идентификатор кодека                     : 4
Продолжительность                        : 44 м.
Вид битрейта                             : Постоянный
Битрейт                                  : 192 Кбит/сек
Каналы                                   : 2 канала
Частота                                  : 48,0 КГц
Метод сжатия                             : С потерями
Размер потока                            : 60,5 Мбайт (5%)
Язык                                     : English
--

[Цитировать]



Показать сообщения:    

Текущее время: 07-Дек 17:32

Часовой пояс: UTC + 3


Вы не можете начинать темы
Вы не можете отвечать на сообщения
Вы не можете редактировать свои сообщения
Вы не можете удалять свои сообщения
Вы не можете голосовать в опросах
Вы не можете прикреплять файлы к сообщениям
Вы не можете скачивать файлы

!ВНИМАНИЕ!
Сайт не предоставляет электронные версии произведений, а занимается лишь коллекционированием и каталогизацией ссылок, присылаемых и публикуемых на форуме нашими читателями. Если вы являетесь правообладателем какого-либо представленного материала и не желаете, чтобы ссылка на него находилась в нашем каталоге, свяжитесь с нами, и мы незамедлительно удалим ее. Файлы для обмена на трекере предоставлены пользователями сайта, и администрация не несет ответственности за их содержание. Просьба не заливать файлы, защищенные авторскими правами, а также файлы нелегального содержания!