[ Сегодня идет свободное скачивание без начисления Download ]


Статистика раздачи
Нет
 
   
 
Top  
 
 
Город монстров / Tales of Halloween (2015) WEB-DL - Производство: США | Epic Pictures Group, Film Entertainment Services
Жанр: Ужасы
Режиссер: Даррен Линн Боусман, Аксель Кэролин, Адам Гираш
Продюсер: Шакед Беренсон, Аксель Кэролин, Патрик Эвальд
Актеры: Лин Шэй, Эдриенн Барбо, Серина Винсент, Лиза Мари, Грег Гранберг, Сэм Уитвер
Описание:
Десять историй, объединенные одной общей темой Хэллоуина, переплетаются вместе в американском пригороде, где упыри, черти, пришельцы и убийцы с топором появляются только в течение одной ночи, чтобы терроризировать ничего не подозревающих жителей.
Возраст: 16+ (зрителям, достигшим 16 лет)
Рейтинг MPAA: R (лицам до 17 лет обязательно присутствие взрослого)
Дата мировой премьеры: 24 июля 2015
Дата премьеры в России: 12 ноября 2015, «Экспонента»

Продолжительность: 01:37:20
Качество видео: WEB-DL
Перевод: Одноголосый закадровый, любительский
Озвучка / Автор перевода: Васька Куролесов по субтитрам МЕГАПЫХАРЬ
Вид субтитров: Отсутствуют
Видео: AVC/H.264, 1280x532 (2.40:1), 23.976 fps, ~3834 Kbps (0.235 bit/pixel)
Аудио: AC-3, 48.0 KHz, 6 ch, 448 Kbps, CBR

Mediainfo:

General
Unique ID                      : 237565396672982405314924729975038646363 (0xB2B96E5DE5F096BE95BC3C0D651D985B)
Complete name                  : C:\Фильмы\Tales.of.Halloween.2015.WEB.DL.720p.mkv
Format                         : Matroska
Format version                 : Version 4 / Version 2
File size                      : 2.97 GiB
Duration                       : 1h 37mn
Overall bit rate               : 4 369 Kbps
Movie name                     : Tales.of.Halloween.2015.720p.WEB-DL.DD5.1.H264
Encoded date                   : UTC 2015-10-21 04:55:39
Writing application            : mkvmerge v8.2.0 ('World of Adventure') 64bit
Writing library                : libebml v1.3.1 + libmatroska v1.4.2
DURATION                       : 01:37:20.960000000
NUMBER_OF_FRAMES               : 182530
NUMBER_OF_BYTES                : 327093760
_STATISTICS_WRITING_APP        : mkvmerge v8.2.0 ('World of Adventure') 64bit
_STATISTICS_WRITING_DATE_UTC   : 2015-10-21 04:55:39
_STATISTICS_TAGS               : BPS DURATION NUMBER_OF_FRAMES NUMBER_OF_BYTES
Video
ID                             : 1
Format                         : AVC
Format/Info                    : Advanced Video Codec
Format profile                 : Main@L3.1
Format settings, CABAC         : No
Format settings, ReFrames      : 2 frames
Codec ID                       : V_MPEG4/ISO/AVC
Duration                       : 1h 37mn
Bit rate                       : 3 834 Kbps
Width                          : 1 280 pixels
Height                         : 532 pixels
Display aspect ratio           : 2.40:1
Frame rate mode                : Constant
Frame rate                     : 23.976 fps
Color space                    : YUV
Chroma subsampling             : 4:2:0
Bit depth                      : 8 bits
Scan type                      : Progressive
Bits/(Pixel*Frame)             : 0.235
Stream size                    : 2.61 GiB (88%)
Title                          : Tales.of.Halloween.2015.720p.WEB-DL.DD5.1
Language                       : English
Default                        : Yes
Forced                         : No
Color primaries                : BT.709
Transfer characteristics       : BT.709
Matrix coefficients            : BT.709
Audio
ID                             : 2
Format                         : AC-3
Format/Info                    : Audio Coding 3
Mode extension                 : CM (complete main)
Format settings, Endianness    : Big
Codec ID                       : A_AC3
Duration                       : 1h 37mn
Bit rate mode                  : Constant
Bit rate                       : 448 Kbps
Channel(s)                     : 6 channels
Channel positions              : Front: L C R, Side: L R, LFE
Sampling rate                  : 48.0 KHz
Bit depth                      : 16 bits
Compression mode               : Lossy
Stream size                    : 312 MiB (10%)
Title                          : Васька Куролесов
Default                        : Yes
Forced                         : No
Menu
00:00:00.000                   : en:Chapter 1
00:16:05.000                   : en:Chapter 2
00:24:38.000                   : en:Chapter 3
00:33:11.000                   : en:Chapter 4
00:45:18.000                   : en:Chapter 5
01:03:36.000                   : en:Chapter 6
01:24:07.000                   : en:Chapter 7
01:31:03.000                   : en:End Credits
Скриншоты:

[Цитировать]



Показать сообщения:    

Текущее время: 09-Дек 01:05

Часовой пояс: UTC + 3


Вы не можете начинать темы
Вы не можете отвечать на сообщения
Вы не можете редактировать свои сообщения
Вы не можете удалять свои сообщения
Вы не можете голосовать в опросах
Вы не можете прикреплять файлы к сообщениям
Вы не можете скачивать файлы

!ВНИМАНИЕ!
Сайт не предоставляет электронные версии произведений, а занимается лишь коллекционированием и каталогизацией ссылок, присылаемых и публикуемых на форуме нашими читателями. Если вы являетесь правообладателем какого-либо представленного материала и не желаете, чтобы ссылка на него находилась в нашем каталоге, свяжитесь с нами, и мы незамедлительно удалим ее. Файлы для обмена на трекере предоставлены пользователями сайта, и администрация не несет ответственности за их содержание. Просьба не заливать файлы, защищенные авторскими правами, а также файлы нелегального содержания!