[ Сегодня идет свободное скачивание без начисления Download ]


Статистика раздачи
Нет
 
   
 
 
 
Топ Гир Сезон 16 + 3 Спецвыпуска / Top Gear Season 16 + 3 Special
Страна: Великобритания
Жанр: Автопередача
Дата выпуска: 2010-2011
Продолжительность: ~60 минут одна серия
Перевод: Профессиональный (многоголосый закадровый) Россия 2 + Lightik, 4euro и alexfilm(на непереведённые места)
Перевод в спецвыпуске Апокалипсис: Одноголосый закадровый от alexfilm
Cубтитры: русские
Описание: Top Gear — популярная английская телепередача, посвящённая автомобилям. Первые выпуски передачи вышли в 1977 году. Эта была передача в формате тележурнала, который в течение долгого времени не менялся. В 2002 году произошёл перезапуск цикла, в результате которого появился современный «Top Gear» — с юмором, приколами и фирменными тестами. Передачу стали вести Джереми Кларксон, Ричард Хаммонд, Джеймс Мэй и суперсекретный водитель-испытатель по прозвищу Стиг. Аудитория программ в странах официальной трансляции составляет около 350 миллионов человек. В Великобритании выходит на канале Би-би-си-2, «BBC HD» и Dave (англ.).
Доп. информация: Серии полные, источник 720p, основной перевод Россия 2, на непереведённые места наложена другая озвучка.
В сериях с 1 по 4 вместе с переводом Россия 2 использована озвучка Lightik, а также его некоторые пояснения субтитрами.
В 5 и 6 серии, вместе с переводом Россия 2 использована озвучка 4euro.
В специальном выпуске Путешествие на восток США вместе с переводом Россия 2 использована озвучка alexfilm.
В специальном выпуске Путешествие на Ближний восток (Три Мудреца) полностью озвучка Россия 2.
В специальном выпуске Апокалипсис полностью озвучка alexfilm.
Во всех сериях имеются: русские субтитры и оригинальная английская дорожка.
Качество видео: HDTVRip
Формат видео: MKV
Видео: 720x400, x264, q21 ~1000 Kbps
Аудио RUS: 2ch, 48 kHz ~192 Kbps
Аудио ENG: 2ch, 48 kHz ~ 128 Kbps

Media Info для 1 эпизода

General
Count : 259
Count of stream of this kind : 1
Kind of stream : General
Kind of stream : General
Stream identifier : 0
Count of video streams : 1
Count of audio streams : 2
Count of text streams : 2
Video_Format_List : AVC
Video_Format_WithHint_List : AVC
Codecs Video : AVC
Video_Language_List : English
Audio_Format_List : AC-3 / AC-3
Audio_Format_WithHint_List : AC-3 / AC-3
Audio codecs : AC3 / AC3
Audio_Language_List : Russian / English
Text_Format_List : ASS / UTF-8
Text_Format_WithHint_List : ASS / UTF-8
Text codecs : ASS / UTF-8
Text_Language_List : Russian / Russian
File name : Top Gear.16x01.x264.RU,EN[BBC-HD]
File extension : mkv
Format : Matroska
Format : Matroska
Format/Extensions usually used : mkv mka mks
Codec : Matroska
Codec : Matroska
Codec/Extensions usually used : mkv mka mks
File size : 545084545
File size : 520 MiB
File size : 520 MiB
File size : 520 MiB
File size : 520 MiB
File size : 519.8 MiB
Duration : 3657728
Duration : 1h 0mn
Duration : 1h 0mn 57s 728ms
Duration : 1h 0mn
Duration : 01:00:57.728
Overall bit rate : 1192181
Overall bit rate : 1 192 Kbps
Stream size : 10848341
Stream size : 10.3 MiB (2%)
Stream size : 10 MiB
Stream size : 10 MiB
Stream size : 10.3 MiB
Stream size : 10.35 MiB
Stream size : 10.3 MiB (2%)
Proportion of this stream : 0.01990
Encoded date : UTC 2011-08-28 07:12:51
File creation date : UTC 2011-08-12 17:38:38.828
File creation date (local) : 2011-08-12 23:38:38.828
File last modification date : UTC 2011-08-28 07:13:07.150
File last modification date (loc : 2011-08-28 13:13:07.150
Writing application : mkvmerge v2.9.9 ('Tutu') built on Nov 25 2009 21:13:32
Writing library : libebml v0.7.9 + libmatroska v0.8.1
Writing library : libebml v0.7.9 + libmatroska v0.8.1
Video
Count : 146
Count of stream of this kind : 1
Kind of stream : Video
Kind of stream : Video
Stream identifier : 0
ID : 1
ID : 1
UniqueID : 4211122352
Format : AVC
Format/Info : Advanced Video Codec
Format profile : [email protected]
Format settings : CABAC / 3 Ref Frames
Format settings, CABAC : Yes
Format settings, CABAC : Yes
Format settings, ReFrames : 3
Format settings, ReFrames : 3 frames
Muxing mode : Container [email protected]
Codec ID : V_MPEG4/ISO/AVC
Codec : V_MPEG4/ISO/AVC
Codec : AVC
Codec/Family : AVC
Codec/Info : Advanced Video Codec
Codec profile : [email protected]
Codec settings : CABAC / 3 Ref Frames
Codec settings, CABAC : Yes
Codec_Settings_RefFrames : 3
Duration : 3657720
Duration : 1h 0mn
Duration : 1h 0mn 57s 720ms
Duration : 1h 0mn
Duration : 01:00:57.720
Bit rate : 848457
Bit rate : 848 Kbps
Nominal bit rate : 870000
Nominal bit rate : 870 Kbps
Width : 720
Width : 720 pixels
Height : 400
Height : 400 pixels
Pixel aspect ratio : 1.000
Display aspect ratio : 1.800
Display aspect ratio : 16:9
Frame rate : 25.000
Frame rate : 25.000 fps
Frame count : 91443
Resolution : 24
Resolution : 24 bits
Colorimetry : 4:2:0
Scan type : Progressive
Scan type : Progressive
Interlacement : PPF
Interlacement : Progressive
Bits/(Pixel*Frame) : 0.118
Delay : 0
Stream size : 387927084
Stream size : 370 MiB (71%)
Stream size : 370 MiB
Stream size : 370 MiB
Stream size : 370 MiB
Stream size : 370.0 MiB
Stream size : 370 MiB (71%)
Proportion of this stream : 0.71168
Writing library : x264 - core 75 r1251kMod e553a4c
Writing library : x264 core 75 r1251kMod e553a4c
Writing library/Name : x264
Writing library/Version : core 75 r1251kMod e553a4c
Encoding settings : cabac=1 / ref=3 / deblock=1:0:0 / analyse=0x3:0x113 / me=tesa / subme=10 / psy=1 / psy_rd=1.0:0.0 / mixed_ref=1 / me_range=12 / chroma_me=1 / trellis=2 / 8x8dct=1 / cqm=0 / deadzone=21,11 / chroma_qp_offset=-2 / threads=6 / nr=0 / decimate=1 / mbaff=0 / bframes=3 / b_pyramid=0 / b_adapt=2 / b_bias=0 / direct=3 / wpredb=1 / keyint=250 / keyint_min=25 / scenecut=40 / rc_lookahead=60 / rc=2pass / mbtree=1 / bitrate=870 / ratetol=1.0 / qcomp=0.50 / qpmin=10 / qpmax=51 / qpstep=4 / cplxblur=20.0 / qblur=0.5 / vbv_maxrate=24000 / vbv_bufsize=24000 / ip_ratio=1.40 / aq=1:1.00
Language : en
Language : English
Audio #1
Count : 122
Count of stream of this kind : 2
Kind of stream : Audio
Kind of stream : Audio
Stream identifier : 0
Stream identifier : 1
ID : 2
ID : 2
UniqueID : 2748908969
Format : AC-3
Format/Info : Audio Coding 3
Codec ID : A_AC3
Codec : AC3
Codec : AC3
Codec/Family : AC3
Codec/Info : Dolby AC3
Duration : 3657728
Duration : 1h 0mn
Duration : 1h 0mn 57s 728ms
Duration : 1h 0mn
Duration : 01:00:57.728
Bit rate mode : CBR
Bit rate mode : Constant
Bit rate : 192000
Bit rate : 192 Kbps
Channel(s) : 2
Channel(s) : 2 channels
Channel positions : L R
Channel positions : 2/0
Sampling rate : 48000
Sampling rate : 48.0 KHz
SamplingCount : 175570944
Delay : 0
Video delay : 0
Video0 delay : 0
Stream size : 87785472
Stream size : 83.7 MiB (16%)
Stream size : 84 MiB
Stream size : 84 MiB
Stream size : 83.7 MiB
Stream size : 83.72 MiB
Stream size : 83.7 MiB (16%)
Proportion of this stream : 0.16105
Language : ru
Language : Russian
Audio #2
Count : 122
Count of stream of this kind : 2
Kind of stream : Audio
Kind of stream : Audio
Stream identifier : 1
Stream identifier : 2
ID : 3
ID : 3
UniqueID : 2115032239
Format : AC-3
Format/Info : Audio Coding 3
Codec ID : A_AC3
Codec : AC3
Codec : AC3
Codec/Family : AC3
Codec/Info : Dolby AC3
Duration : 3657728
Duration : 1h 0mn
Duration : 1h 0mn 57s 728ms
Duration : 1h 0mn
Duration : 01:00:57.728
Bit rate mode : CBR
Bit rate mode : Constant
Bit rate : 128000
Bit rate : 128 Kbps
Channel(s) : 2
Channel(s) : 2 channels
Channel positions : L R
Channel positions : 2/0
Sampling rate : 48000
Sampling rate : 48.0 KHz
SamplingCount : 175570944
Delay : 0
Video delay : 0
Video0 delay : 0
Stream size : 58523648
Stream size : 55.8 MiB (11%)
Stream size : 56 MiB
Stream size : 56 MiB
Stream size : 55.8 MiB
Stream size : 55.81 MiB
Stream size : 55.8 MiB (11%)
Proportion of this stream : 0.10737
Language : en
Language : English
Text #1
Count : 87
Count of stream of this kind : 2
Kind of stream : Text
Kind of stream : Text
Stream identifier : 0
Stream identifier : 1
ID : 4
ID : 4
UniqueID : 130589363
Format : ASS
Codec ID : S_TEXT/ASS
Codec ID/Info : Advanced Sub Station Alpha
Codec : S_TEXT/ASS
Codec : ASS
Codec/Info : Advanced Sub Station Alpha
Title : Forced - Lightik
Language : ru
Language : Russian
Text #2
Count : 87
Count of stream of this kind : 2
Kind of stream : Text
Kind of stream : Text
Stream identifier : 1
Stream identifier : 2
ID : 5
ID : 5
UniqueID : 4017373575
Format : UTF-8
Codec ID : S_TEXT/UTF8
Codec ID/Info : UTF-8 Plain Text
Codec : S_TEXT/UTF8
Codec : UTF-8
Codec/Info : UTF-8 Plain Text
Title : Full
Language : ru
Language : Russian

Описание серий

Апокалипсис


Подробное руководство по автомобилям в постапокалиптическом мире. Что будет из себя представлять автомобилизм в постапокалиптическом мире, изуродованном атомными бомбами или огромной кометой? На этот животрепещущий вопрос, которым буквально никто озадачен, мы и дадим ответы в новом неунывающем DVD от Top Gear. Отправившись в ужасающее путешествие в будущее, мы покажем вам, как ездить на работу в вечной мгле ядерной зимы, как сделать автоспорт захватывающим, когда в живых осталось только два гонщика, и как в мире, в котором все машины обвешаны оружием, пережить дикую и гремучую ярость техосмотра Судного дня. И помимо всего этого ядерного побоища, мы ответим на главный вопрос автолюбителей – в какие машины залить последний запас топлива на планете?

Путешествие на восток США - спецвыпуск на Рождество часть 1


Сегодня троица из Top Gear отправляется в Америку, на восточное побережье страны. Проходя различные испытания в попытке добраться до Нью-Йорка на Mercedes SLS, Ferrari 458 Italia и Porsche 911 GT3 RS, ведущие попробуют выбрать из этих трех авто лучший спорткар современности.

Путешествие на Ближний восток (Три Мудреца) - спецвыпуск на Рождество часть 2


Три мудреца из Top Gear направляются в священный Вифлеем, прокладывая себе путь через Турцию, Сирию, Иорданию и Израиль. Для этой поездки ведущие выбирают подержанные кабриолеты Mazda MX5, BMW Z3 и Fiat Barchetta, а их путешествие начинается в небе над Ираком.

Эпизод 1


- Джереми Кларксон делает обзор Skoda Yeti, ставя над автомобилем различные эксперименты.
- Историческая справка о Porsche 911 от Ричарда Хаммонда.
- Джеймс Мэй садится за руль автомобиля, искореживающего лица – Ariel Atom V8.
- Знаменитость в бюджетном авто: Джон Бишоп, комик.

Эпизод 2


- Противостояние Top Gear UK и Top Gear Австралия глазами британцев.
- Джереми Кларксон в обзоре Ferrari 599 GTO.
- Знаменитость в бюджетном авто: Борис Беккер, немецкий теннисист.

Эпизод 3


- Ведущие отправляются в Албанию, чтобы протестировать Rolls-Royce Ghost, Bentley Mulsanne и Mercedes S65 AMG.
- Джереми Кларксон и горячие хэтчбеки: Ford Focus RS500, Cosworth Impreza STI CS400 и Volvo C30 PPC.
- Знаменитость в бюджетном авто: Джонатан Росс, теле- и радиоведущий.

Эпизод 4


- Испытание Top Gear: ведущие покупают дешевые подержанные кабриолеты.
- Обзор Pagani Zonda R от Джереми Кларксона.
- Знаменитости в бюджетном авто: Саймон Пегг и Ник Фрост, комедийные актеры.

Эпизод 5


- Джереми Кларксон за рулем BMW M3 и Audi RS5 на треке.
- Ведущие отправляются в Норвегию, чтобы поквитаться со снегом при помощи комбайна.
- Знаменитость в бюджетном авто: Эмбер Херд, американская актриса.

Эпизод 6


- Джереми Кларксон за рулем Jaguar XJ пытается обогнать вращение Земли.
- Ричард Хаммонд и автомобили-мечты его детства: Porsche 959 и Ferrari F40.
- Джеймс Мэй тестирует аппарат для космических исследований NASA в Америке.
- Знаменитость в бюджетном авто: Джон Прескотт, бывший вице-премьер Великобритании.

[Цитировать]



Показать сообщения:    

Текущее время: 04-Дек 17:12

Часовой пояс: UTC + 3


Вы не можете начинать темы
Вы не можете отвечать на сообщения
Вы не можете редактировать свои сообщения
Вы не можете удалять свои сообщения
Вы не можете голосовать в опросах
Вы не можете прикреплять файлы к сообщениям
Вы не можете скачивать файлы

!ВНИМАНИЕ!
Сайт не предоставляет электронные версии произведений, а занимается лишь коллекционированием и каталогизацией ссылок, присылаемых и публикуемых на форуме нашими читателями. Если вы являетесь правообладателем какого-либо представленного материала и не желаете, чтобы ссылка на него находилась в нашем каталоге, свяжитесь с нами, и мы незамедлительно удалим ее. Файлы для обмена на трекере предоставлены пользователями сайта, и администрация не несет ответственности за их содержание. Просьба не заливать файлы, защищенные авторскими правами, а также файлы нелегального содержания!