[ Today is free to download without increasing Download ]

DL-List and Torrent activity
Топ Гир в Кино / Top Gear at the Movies- Год выпуска: 2011
Жанр: Автопередача
Ведущие: Richard Hammond, James May
Продолжительность: 01:13:20-Перевод: Любительский (двухголосый закадровый) - Jetvis Studio
Язык: Русский, Английский
Субтитры: Отсутствуют-Перевод: Андрей "Fahrenheit" Шульдешов и doc_ravik
Озвучка: Jetvis Studio
Текст читали: Иван "Jet" Назаров и Михаил "Smartt" Вельмискин-Описание: 14 ноября поклонникам знаменитого авто-шоу Top Gear будет чему порадоваться – на DVD выходит фильм "Top Gear в Кино" (Top Gear at the Movies), в котором Ричард Хаммонд и Джеймс Мэй гоняются на спорткарах и домах на колесах, участвуют в перестрелках и взрывают машины. А заодно рассказывают о том, насколько важна роль автомобиля в современном кинематографе.-Cars! Film! Cars on film! Film involving cars! You get the idea.
Gasp as we find the perfect drift car for a gritty, Bourne Identity-style chase! Cheer as we stage a race for all those unsung heroes of the movie industry! Whoop as we find the car that makes the perfect dramatic exhaust note to dub onto an action sequence! Make some other sort of noise we haven’t thought of yet as we re-attempt the classic Man With The Golden Gun barrel roll, having frankly made a total hash of it when we first tried it on telly! All this plus a vast fleet of sexy supercars and a man with a jet pack racing a Skoda.
Top Gear At The Movies. It’s better than an actual movie. Probably. Actually, it depends on which movie we’re talking about. Truth is, you’d be better judging this on a case-by-case basis. Why not write to us with the name of a film and we’ll tell you whether this Blu-ray is better or not. Actually, on second thoughts, don’t.-Исходник: KiK
Рип: Собственный-Качество: DVDRip
Формат: AVI
Видео кодек: XviD
Аудио кодек: МР3/АС3
Видео: 720x400 (1.80:1), 25 fps, XviD build 50 ~1997 kbps avg, 0.28 bit/pixel
Аудио 1: 48 kHz, MPEG Layer 3, 2 ch, ~192.00 kbps avg [Русский]
Аудио 2: 48 kHz, AC3 Dolby Digital, 3/2 (L,C,R,l,r) + LFE ch, ~448 kbps [Английский]-Трейлер-


ОбщееПолное имя : Top.Gear.At.The.Movies.2011.DVDRip.XviD.[RU-EN].by.Jetvis.Studio.aviФормат : AVIФормат/Информация : Audio Video InterleaveРазмер файла : 1,36 ГбайтПродолжительность : 1 ч. 13 м.Общий поток : 2653 Кбит/секПрограмма кодирования : VirtualDubMod | www.virtualdub-fr.org || (build 2550/release)Библиотека кодирования : VirtualDubMod build 2550/release
ВидеоИдентификатор : 0Формат : MPEG-4 VisualПрофиль формата : Advanced Simple@L5Параметр BVOP формата : 1Параметр QPel формата : НетПараметр GMC формата : Без точки переходаПараметр матрицы формата : Default (MPEG)Идентификатор кодека : XVIDИдентификатор кодека/Подсказка : XviDПродолжительность : 1 ч. 13 м.Битрейт : 1999 Кбит/секШирина : 720 пикселейВысота : 400 пикселейСоотношение сторон : 16:9Частота кадров : 25,000 кадров/секЦветовое пространство : YUVСубдискретизация насыщенности : 4:2:0Битовая глубина : 8 битТип развёртки : ПрогрессивнаяМетод сжатия : С потерямиБит/(Пиксели*Кадры) : 0.278Размер потока : 1,02 Гбайт (75%)Библиотека кодирования : XviD 1.2.1 (UTC 2008-12-04)
Аудио #1Идентификатор : 1Формат : MPEG AudioВерсия формата : Version 1Профиль формата : Layer 3Идентификатор кодека : 55Идентификатор кодека/Подсказка : MP3Продолжительность : 1 ч. 13 м.Вид битрейта : ПостоянныйБитрейт : 192 Кбит/секКаналы : 2 каналаЧастота : 48,0 КГцМетод сжатия : С потерямиРазмер потока : 101 Мбайт (7%)Выравнивание : Соединение по промежуткамПродолжительность промежутка : 40 мс. (1,00 видеокадр)Время предзагрузки промежутка : 504 мс.
Аудио #2Идентификатор : 2Формат : AC-3Формат/Информация : Audio Coding 3Расширение режима : CM (complete main)Идентификатор кодека : 2000Продолжительность : 1 ч. 13 м.Вид битрейта : ПостоянныйБитрейт : 448 Кбит/секКаналы : 6 каналовРасположение каналов : Front: L C R, Side: L R, LFEЧастота : 48,0 КГцБитовая глубина : 16 битМетод сжатия : С потерямиРазмер потока : 235 Мбайт (17%)Выравнивание : Разделение по промежуткамПродолжительность промежутка : 40 мс. (1,00 видеокадр)Время предзагрузки промежутка : 500 мс.




Display posts:    

Current time is: 28-Oct 05:30

All times are UTC + 3

You cannot post new topics in this forum
You cannot reply to topics in this forum
You cannot edit your posts in this forum
You cannot delete your posts in this forum
You cannot vote in polls in this forum
You cannot attach files in this forum
You cannot download files in this forum

The site does not give electronic versions of products, and is engaged only in a collecting and cataloguing of the references sent and published at a forum by our readers. If you are the legal owner of any submitted material and do not wish that the reference to it was in our catalogue, contact us and we shall immediately remove her. Files for an exchange on tracker are given by users of a site, and the administration does not bear the responsibility for their maintenance. The request to not fill in the files protected by copyrights, and also files of the illegal maintenance!