[ Сегодня идет свободное скачивание без начисления Download ]


Статистика раздачи
Нет
 
   
 
 
 
Топ Гир - 50 лет автомобилям Бонда / Top Gear - 50 Years of Bond Cars
Авто Плюс
- Год выпуска: 2012
Жанр: Автопередача
Ведущий: Richard Hammond
Продолжительность: 01:01:53-Перевод: Профессиональный (двухголосый) - Авто Плюс
Язык: Русский, Английский
Субтитры: Отсутствуют
Канал: BBC HD-Описание: Ричард Хаммонд отмечает 50-летие фильмов о Джеймсе Бонде с рассказом о легендарных автомобилях Агента 007. Также он беседует с Дэниэлом Крэйгом и Роджером Муром и попадает на съемки фильма 007: Координаты «Скайфолл». Помимо этого, Ричард погрузится под воду на специально построенном автомобиле-амфибии Lotus и сядет за руль фургона-невидимки.-In a special edition of Top Gear, Richard Hammond celebrates 50 years of James Bond films with a look back at 007's legendary cars. He also talks to Daniel Craig and Sir Roger Moore, gets exclusive access behind the scenes of Bond's latest adventure, Skyfall, and pays special tribute to 007 by attempting to turn a Lotus in a fully working submarine car.-Исходник от: FoV
Рип: Собственный-Качество: HDTVRip [400p]
Формат: AVI
Видео кодек: XviD
Аудио кодек: АС3
Видео: 720x400 (1.80:1), 25 fps, XviD build 50 ~1998 kbps avg, 0.28 bit/pixel
Аудио #1: 48 kHz, AC3 Dolby Digital, 2/0 (L,R) ch, ~192 kbps [Русский]
Аудио #2: 48 kHz, AC3 Dolby Digital, 2/0 (L,R) ch, ~192 kbps [Английский]-

MediaInfo

ОбщееПолное имя : Top.Gear.Special.50.Years.of.Bond.Cars.2012.HDTV.400p.XviD.AC3.[RU-EN].aviФормат : AVIФормат/Информация : Audio Video InterleaveРазмер файла : 1,04 ГбайтПродолжительность : 1 ч. 1 м.Общий поток : 2398 Кбит/секПрограмма кодирования : VirtualDubMod 1.5.10.3 | www.virtualdub-fr.org || (build 2550/release)Библиотека кодирования : VirtualDubMod build 2550/release
ВидеоИдентификатор : 0Формат : MPEG-4 VisualПрофиль формата : Advanced Simple@L5Параметр BVOP формата : 1Параметр QPel формата : НетПараметр GMC формата : Без точки переходаПараметр матрицы формата : Default (MPEG)Идентификатор кодека : XVIDИдентификатор кодека/Подсказка : XviDПродолжительность : 1 ч. 1 м.Битрейт : 2000 Кбит/секШирина : 720 пикселейВысота : 400 пикселейСоотношение сторон : 16:9Частота кадров : 25,000 кадров/секЦветовое пространство : YUVСубдискретизация насыщенности : 4:2:0Битовая глубина : 8 битТип развёртки : ПрогрессивнаяМетод сжатия : С потерямиБит/(Пиксели*Кадры) : 0.278Размер потока : 885 Мбайт (83%)Библиотека кодирования : XviD 1.2.1 (UTC 2008-12-04)
Аудио #1Идентификатор : 1Формат : AC-3Формат/Информация : Audio Coding 3Расширение режима : CM (complete main)Идентификатор кодека : 2000Продолжительность : 1 ч. 1 м.Вид битрейта : ПостоянныйБитрейт : 192 Кбит/секКаналы : 2 каналаРасположение каналов : Front: L RЧастота : 48,0 КГцБитовая глубина : 16 битМетод сжатия : С потерямиРазмер потока : 85,0 Мбайт (8%)Выравнивание : Разделение по промежуткамПродолжительность промежутка : 40 мс. (1,00 видеокадр)Время предзагрузки промежутка : 500 мс.
Аудио #2Идентификатор : 2Формат : AC-3Формат/Информация : Audio Coding 3Расширение режима : CM (complete main)Идентификатор кодека : 2000Продолжительность : 1 ч. 1 м.Вид битрейта : ПостоянныйБитрейт : 192 Кбит/секКаналы : 2 каналаРасположение каналов : Front: L RЧастота : 48,0 КГцБитовая глубина : 16 битМетод сжатия : С потерямиРазмер потока : 85,0 Мбайт (8%)Выравнивание : Разделение по промежуткамПродолжительность промежутка : 40 мс. (1,00 видеокадр)Время предзагрузки промежутка : 500 мс.
-

[Цитировать]



Показать сообщения:    

Текущее время: 09-Дек 06:47

Часовой пояс: UTC + 3


Вы не можете начинать темы
Вы не можете отвечать на сообщения
Вы не можете редактировать свои сообщения
Вы не можете удалять свои сообщения
Вы не можете голосовать в опросах
Вы не можете прикреплять файлы к сообщениям
Вы не можете скачивать файлы

!ВНИМАНИЕ!
Сайт не предоставляет электронные версии произведений, а занимается лишь коллекционированием и каталогизацией ссылок, присылаемых и публикуемых на форуме нашими читателями. Если вы являетесь правообладателем какого-либо представленного материала и не желаете, чтобы ссылка на него находилась в нашем каталоге, свяжитесь с нами, и мы незамедлительно удалим ее. Файлы для обмена на трекере предоставлены пользователями сайта, и администрация не несет ответственности за их содержание. Просьба не заливать файлы, защищенные авторскими правами, а также файлы нелегального содержания!