[ Сегодня идет свободное скачивание без начисления Download ]


Статистика раздачи
Нет
 
   
 
Top  
 
 
Интересы государства / Secret défense (2008) BDRip 1080p Название: Интересы государства
Оригинальное название: Secret défense
Год выпуска: 2008
Жанр: Триллер
Режиссер: Филипп Аим
В ролях: Жерар Ланвен, Ваина Джоканте, Николя Дювошель, Мехди Неббу, Рашида Бракни, Симон Абкарян, Орельен Вик, Катя Левкович, Камель Бельгази, Джамел Барек, Карим Мессалти, Хассам Ганси, Николя Марье, Салем Кали, Мусса Мааскри, Саид Амади, Катрин Ижель, Жиль Милан, Асиль Раис, Анатоль Таубман
О фильме:
Во Франции террористические группы и разведка ведут битву в ежедневной безжалостной войне во имя радикально противоположных идеологий. Тем не менее, террористические и тайные агенты ведут почти одинаковый образ жизни. Алекс и Аль-Барад - два из них. Первый глава из DGSE, французский эквивалент ЦРУ или MI6 по борьбе с терроризмом, а второй руководит террористической сетью...

Страна: Франция, Angoa-Agicoa, Canal+ [fr], France 2 Cinéma
Продолжительность: 01:40:46
Перевод: Профессиональный многоголосый / Профессиональный многоголосый
Кодек: H.264
Качество: BDRip 1080p
Видео: MPEG-4 AVC, 9707 Кбит/с, 1920x816, 24.000 кадр/с
Звук: Русский (АС3, 6 ch, 384 Кбит/c), (АС3, 2 ch, 224 Кбит/c), французский (АС3, 6 ch, 640 Кбит/c)
Субтитры: Русские

Инфо-файл

Полное имя : E:Secret.Defense.2008.x264.BDRip.1080p.NovaLan.mkv
Формат : Matroska
Версия формата : Version 4 / Version 2
Размер файла : 7,71 Гбайт
Продолжительность : 1 ч. 41 м.
Общий поток : 10,9 Мбит/сек
Название фильма : Secret Defense 2008 - NovaLan
Дата кодирования : UTC 2015-10-23 21:32:34
Программа кодирования : mkvmerge v8.3.0 ('Over the Horizon') 64bit
Библиотека кодирования : libebml v1.3.1 + libmatroska v1.4.2
DURATION : 01:36:41.142000000
NUMBER_OF_FRAMES : 798
NUMBER_OF_BYTES : 46304
_STATISTICS_WRITING_APP : mkvmerge v8.3.0 ('Over the Horizon') 64bit
_STATISTICS_WRITING_DATE_UTC : 2015-10-23 21:32:34
_STATISTICS_TAGS : BPS DURATION NUMBER_OF_FRAMES NUMBER_OF_BYTES
Видео
Идентификатор : 1
Формат : AVC
Формат/Информация : Advanced Video Codec
Профиль формата : High@L4.1
Параметр CABAC формата : Да
Параметр ReFrames формата : 4 кадра
Идентификатор кодека : V_MPEG4/ISO/AVC
Продолжительность : 1 ч. 41 м.
Битрейт : 9707 Кбит/сек
Ширина : 1920 пикселей
Высота : 816 пикселей
Соотношение сторон : 2,35:1
Частота кадров : 24,000 кадра/сек
Цветовое пространство : YUV
Субдискретизация насыщенности : 4:2:0
Битовая глубина : 8 бит
Тип развёртки : Прогрессивная
Бит/(Пиксели*Кадры) : 0.258
Размер потока : 6,67 Гбайт (87%)
Заголовок : Sergei7721
Библиотека кодирования : x264 core 146 r2538 121396c
Настройки программы : cabac=1 / ref=4 / deblock=1:-1:-1 / analyse=0x3:0x113 / me=umh / subme=11 / psy=1 / psy_rd=1.00:0.20 / mixed_ref=1 / me_range=24 / chroma_me=1 / trellis=2 / 8x8dct=1 / cqm=0 / deadzone=21,11 / fast_pskip=0 / chroma_qp_offset=-3 / threads=12 / lookahead_threads=1 / sliced_threads=0 / nr=0 / decimate=0 / interlaced=0 / bluray_compat=0 / constrained_intra=0 / bframes=6 / b_pyramid=2 / b_adapt=2 / b_bias=0 / direct=3 / weightb=1 / open_gop=0 / weightp=2 / keyint=240 / keyint_min=24 / scenecut=40 / intra_refresh=0 / rc_lookahead=40 / rc=2pass / mbtree=0 / bitrate=9707 / ratetol=1.0 / qcomp=0.60 / qpmin=0 / qpmax=69 / qpstep=4 / cplxblur=20.0 / qblur=0.5 / vbv_maxrate=50000 / vbv_bufsize=62500 / nal_hrd=none / filler=0 / ip_ratio=1.40 / pb_ratio=1.30 / aq=1:1.00
Default : Да
Forced : Нет
DURATION : 01:40:46.042000000
NUMBER_OF_FRAMES : 145105
NUMBER_OF_BYTES : 7328690257
_STATISTICS_WRITING_APP : mkvmerge v8.3.0 ('Over the Horizon') 64bit
_STATISTICS_WRITING_DATE_UTC : 2015-10-23 21:32:34
_STATISTICS_TAGS : BPS DURATION NUMBER_OF_FRAMES NUMBER_OF_BYTES
Аудио #1
Идентификатор : 2
Формат : AC-3
Формат/Информация : Audio Coding 3
Расширение режима : CM (complete main)
Параметр Endianness формата : Big
Идентификатор кодека : A_AC3
Продолжительность : 1 ч. 41 м.
Вид битрейта : Постоянный
Битрейт : 384 Кбит/сек
Каналы : 6 каналов
Расположение каналов : Front: L C R, Side: L R, LFE
Частота : 48,0 КГц
Битовая глубина : 16 бит
Метод сжатия : С потерями
Размер потока : 277 Мбайт (4%)
Язык : Russian
Default : Да
Forced : Нет
Аудио #2
Идентификатор : 3
Формат : AC-3
Формат/Информация : Audio Coding 3
Профиль формата : Dolby Digital
Расширение режима : CM (complete main)
Параметр Endianness формата : Big
Идентификатор кодека : A_AC3
Продолжительность : 1 ч. 41 м.
Вид битрейта : Постоянный
Битрейт : 224 Кбит/сек
Каналы : 2 канала
Расположение каналов : Front: L R
Частота : 48,0 КГц
Битовая глубина : 16 бит
Метод сжатия : С потерями
Размер потока : 162 Мбайт (2%)
Язык : Russian
Default : Нет
Forced : Нет
Аудио #3
Идентификатор : 4
Формат : AC-3
Формат/Информация : Audio Coding 3
Расширение режима : CM (complete main)
Параметр Endianness формата : Big
Идентификатор кодека : A_AC3
Продолжительность : 1 ч. 41 м.
Вид битрейта : Постоянный
Битрейт : 640 Кбит/сек
Каналы : 6 каналов
Расположение каналов : Front: L C R, Side: L R, LFE
Частота : 48,0 КГц
Битовая глубина : 16 бит
Метод сжатия : С потерями
Размер потока : 462 Мбайт (6%)
Язык : French
Default : Нет
Forced : Нет
Текст
Идентификатор : 5
Формат : UTF-8
Идентификатор кодека : S_TEXT/UTF8
Идентификатор кодека/Информация : UTF-8 Plain Text
Язык : Russian
Default : Нет
Forced : Нет
Меню
00:00:00.000 : en:00:00:00.000
00:03:57.375 : en:00:03:57.375
00:10:04.917 : en:00:10:04.917
00:17:17.833 : en:00:17:17.833
00:24:26.542 : en:00:24:26.542
00:27:03.417 : en:00:27:03.417
00:35:54.208 : en:00:35:54.208
00:43:08.000 : en:00:43:08.000
00:53:15.417 : en:00:53:15.417
00:59:52.958 : en:00:59:52.958
01:07:26.417 : en:01:07:26.417
01:14:07.042 : en:01:14:07.042
01:19:02.375 : en:01:19:02.375
01:23:46.792 : en:01:23:46.792
01:29:20.083 : en:01:29:20.083
01:36:47.292 : en:01:36:47.292

Скриншоты

[Цитировать]



Показать сообщения:    

Текущее время: 10-Дек 21:33

Часовой пояс: UTC + 3


Вы не можете начинать темы
Вы не можете отвечать на сообщения
Вы не можете редактировать свои сообщения
Вы не можете удалять свои сообщения
Вы не можете голосовать в опросах
Вы не можете прикреплять файлы к сообщениям
Вы не можете скачивать файлы

!ВНИМАНИЕ!
Сайт не предоставляет электронные версии произведений, а занимается лишь коллекционированием и каталогизацией ссылок, присылаемых и публикуемых на форуме нашими читателями. Если вы являетесь правообладателем какого-либо представленного материала и не желаете, чтобы ссылка на него находилась в нашем каталоге, свяжитесь с нами, и мы незамедлительно удалим ее. Файлы для обмена на трекере предоставлены пользователями сайта, и администрация не несет ответственности за их содержание. Просьба не заливать файлы, защищенные авторскими правами, а также файлы нелегального содержания!