[ Сегодня идет свободное скачивание без начисления Download ]


Статистика раздачи
Нет
 
   
 
Top  
 
 
Притворись моим мужем / You May Not Kiss the Bride (2012) BDRip 1080p Информация о фильме
Название: Притворись моим мужем
Оригинальное название: You May Not Kiss the Bride
Год выхода: 2012
Жанр: мелодрама, комедия, приключения
Режиссер: Роб Хедден
В ролях: Роб Шнайдер, Винни Джонс, Мина Сувари, Дэйв Эннэйбл, Кэтрин МакФи, Кэти Бейтс, Кен Давитян, Тиа Каррере, Кевин Данн, Стивен Тоболовски
Страна: США
Продолжительность: 01:40:10
Перевод: профессиональный многоголосый закадровый
О фильме:
Скромному фотографу Брайану Лайтхаусу не повезло. Совершенно неожиданно он оказался в долгу перед обосновавшимся в США хорватским криминальным авторитетом Вадиком Никитиным. Теперь Брайану нужно жениться на дочери бандита Маше, чтобы та смогла беспрепятственно получить американское гражданство, а потом спокойно развестись.Есть и другое условие: брак - браком, но к невесте горе-жених и пальцем не должен прикасаться. И это самая непростая часть договора, потому что девушка - ослепительная красавица. Дело осложняется и тем, что во время медового месяца на далеком экзотическом острове новоиспеченную жену похищают неизвестные. Ее возвращение становится для Брайана вопросом жизни и смерти...

Файл
Качество: BDRip 1080p
Видео:
MPEG-4 AVC, 9435 Кбит/с, 1920x1080, 24 кадр/с
Аудио:
1. Русский (DTS, 6 ch, 768 Кбит/с)
2. Русский (AC3, 6 ch, 448 Кбит/с)
3. Английский (AC3, 6 ch, 448 Кбит/с)

МедиаИнфо

Формат : Matroska
Версия формата : Version 2
Размер файла : 7,76 Гбайт
Продолжительность : 1 ч. 40 м.
Общий поток : 11,1 Мбит/сек
Название фильма : ~V ad~
Дата кодирования : UTC 2015-03-23 04:32:31
Программа кодирования : mkvmerge v6.1.0 ('Old Devil') built on Mar 4 2013 09:10:42
Библиотека кодирования : libebml v1.3.0 + libmatroska v1.4.0
Обложка : Yes
Видео
Идентификатор : 1
Формат : AVC
Формат/Информация : Advanced Video Codec
Профиль формата : [email protected]
Параметр CABAC формата : Да
Параметр ReFrames формата : 4 кадра
Идентификатор кодека : V_MPEG4/ISO/AVC
Продолжительность : 1 ч. 40 м.
Битрейт : 9435 Кбит/сек
Ширина : 1920 пикселей
Высота : 1080 пикселей
Соотношение сторон : 16:9
Режим частоты кадров : Постоянный
Частота кадров : 24,000 кадра/сек
Цветовое пространство : YUV
Субдискретизация насыщенности : 4:2:0
Битовая глубина : 8 бит
Тип развёртки : Прогрессивная
Бит/(Пиксели*Кадры) : 0.190
Размер потока : 6,45 Гбайт (83%)
Заголовок : ~V~
Библиотека кодирования : x264 core 142 r0+4281 a3bf0d5 Test [[email protected] X86_64]
Настройки программы : cabac=1 / ref=4 / deblock=1:-3:-3 / analyse=0x3:0x133 / me=umh / subme=11 / psy=1 / fade_compensate=0.00 / psy_rd=1.00:0.00 / mixed_ref=1 / me_range=32 / chroma_me=1 / trellis=2 / 8x8dct=1 / cqm=0 / deadzone=21,11 / fast_pskip=0 / chroma_qp_offset=-2 / threads=12 / lookahead_threads=1 / sliced_threads=0 / nr=0 / decimate=0 / interlaced=0 / bluray_compat=0 / constrained_intra=0 / fgo=0 / bframes=8 / b_pyramid=2 / b_adapt=2 / b_bias=0 / direct=3 / weightb=1 / open_gop=0 / weightp=2 / keyint=240 / keyint_min=24 / scenecut=40 / intra_refresh=0 / rc=2pass / mbtree=0 / bitrate=9435 / ratetol=1.0 / qcomp=0.60 / qpmin=0:0:0 / qpmax=69:69:69 / qpstep=4 / cplxblur=20.0 / qblur=0.5 / ip_ratio=1.40 / pb_ratio=1.30 / aq=4:0.75 / aq-sensitivity=11.00 / aq-factor=1.00:1.00:1.00 / aq2=1:0.60 / aq2-sensitivity=13.00 / aq2-factor=1.00:1.00:1.00 / aq3=1:[0.60:0.60]:[0.60:0.60]:[0.60:0.60]:[0.60:0.60] / aq3-sensitivity=9.00 / aq3-factor=[1.00:1.00]:[1.00:1.00]:[1.00:1.00] / aq3-boundary=192:64:24
Язык : English
Default : Да
Forced : Нет
Аудио #1
Идентификатор : 2
Формат : DTS
Формат/Информация : Digital Theater Systems
Режим : 16
Параметр Endianness формата : Big
Идентификатор кодека : A_DTS
Продолжительность : 1 ч. 40 м.
Вид битрейта : Постоянный
Битрейт : 755 Кбит/сек
Каналы : 6 каналов
Расположение каналов : Front: L C R, Side: L R, LFE
Частота : 48,0 КГц
Битовая глубина : 24 бит
Метод сжатия : С потерями
Размер потока : 541 Мбайт (7%)
Заголовок : License
Язык : Russian
Default : Нет
Forced : Нет
Аудио #2
Идентификатор : 3
Формат : AC-3
Формат/Информация : Audio Coding 3
Расширение режима : CM (complete main)
Параметр Endianness формата : Big
Идентификатор кодека : A_AC3
Продолжительность : 1 ч. 40 м.
Вид битрейта : Постоянный
Битрейт : 448 Кбит/сек
Каналы : 6 каналов
Расположение каналов : Front: L C R, Side: L R, LFE
Частота : 48,0 КГц
Битовая глубина : 16 бит
Метод сжатия : С потерями
Размер потока : 321 Мбайт (4%)
Заголовок : License
Язык : Russian
Default : Да
Forced : Да
Аудио #3
Идентификатор : 4
Формат : AC-3
Формат/Информация : Audio Coding 3
Расширение режима : CM (complete main)
Параметр Endianness формата : Big
Идентификатор кодека : A_AC3
Продолжительность : 1 ч. 40 м.
Вид битрейта : Постоянный
Битрейт : 448 Кбит/сек
Каналы : 6 каналов
Расположение каналов : Front: L C R, Side: L R, LFE
Частота : 48,0 КГц
Битовая глубина : 16 бит
Метод сжатия : С потерями
Размер потока : 321 Мбайт (4%)
Заголовок : Original
Язык : English
Default : Нет
Forced : Нет
Меню
00:00:00.000 : en:01
00:02:12.291 : en:02
00:14:30.916 : en:03
00:28:05.833 : en:04
00:42:18.666 : en:05
00:53:24.041 : en:06
01:03:48.125 : en:07
01:14:12.791 : en:08
01:23:41.583 : en:09
01:30:00.000 : en:10
01:35:32.500 : en:11

х264

x264 [info]: frame I:1513 Avg QP:16.29 size:210042
x264 [info]: frame P:34678 Avg QP:18.87 size: 85287
x264 [info]: frame B:108066 Avg QP:19.81 size: 35286
x264 [info]: consecutive B-frames: 3.3% 4.2% 13.4% 20.4% 15.1% 37.4% 4.9% 0.4%

Скриншоты


[Цитировать]



Показать сообщения:    

Текущее время: 05-Дек 03:26

Часовой пояс: UTC + 3


Вы не можете начинать темы
Вы не можете отвечать на сообщения
Вы не можете редактировать свои сообщения
Вы не можете удалять свои сообщения
Вы не можете голосовать в опросах
Вы не можете прикреплять файлы к сообщениям
Вы не можете скачивать файлы

!ВНИМАНИЕ!
Сайт не предоставляет электронные версии произведений, а занимается лишь коллекционированием и каталогизацией ссылок, присылаемых и публикуемых на форуме нашими читателями. Если вы являетесь правообладателем какого-либо представленного материала и не желаете, чтобы ссылка на него находилась в нашем каталоге, свяжитесь с нами, и мы незамедлительно удалим ее. Файлы для обмена на трекере предоставлены пользователями сайта, и администрация не несет ответственности за их содержание. Просьба не заливать файлы, защищенные авторскими правами, а также файлы нелегального содержания!