[ Сегодня идет свободное скачивание без начисления Download ]


Статистика раздачи
Нет
 
   
 
Top  
 
 
Адъютант его превосходительства (1969)Информация о фильме
Название: Адъютант его превосходительства
Год выхода: 1969
Жанр: драма, исторический, военный
Режиссер: Евгений Ташков
В ролях: Юрий Соломин, Александр Милокостый, Владислав Стржельчик, Владимир Козел, Татьяна Иваницкая, Анатолий Папанов, Евгений Шутов, Николай Тимофеев, Андрей Петров, Виктор Павлов, Юрий Назаров, Борис Юрченко, Николай Граббе, Даниил Нетребин, Игорь Старыгин, Константин Желдин, Евгений Тетерин, Михаил Кокшенов, Людмила Чурсина, Юрий Медведев, Сергей Полежаев, Борис Новиков, Владимир Маренков, Иван Матвеев, Алексей Смирнов, Евгений Ташков, Валентин Смирнитский
О фильме: Многосерийный телефильм о судьбе красного разведчика Кольцова, который в 1919 году был направлен со спецзаданием в штаб деникинской армии, где стал адъютантом командующего. Основанный на реальных событиях, фильм не только рассказывает о блестяще проведенных Кольцовым операциях, но и раскрывает сложный внутренний мир героев, живших в противоречивое, трагическое время.
Страна: СССР, Мосфильм
Продолжительность: 5 х ~ 01:15:20
Перевод: не требуется
Файл
Кодек: x264
Качество: SATRip-AVC
Видео: MPEG-4 AVC, ~ 2300 Кбит/с, 712x574@762х574
Звук: AC3, 2 ch, 256 Кбит/с

Скриншоты

Медиа-Инфо

Общее
Уникальный идентификатор : 231046920355463334669434734575753608885 (0xADD204ABD79AC28690BF03BDE373BEB5)
Полное имя : R:МОИ РИПЫАдъютант его превосходительства_1969-SATRip-AVCАдъютант-1.mkv
Формат : Matroska
Версия формата : Version 2
Размер файла : 1,35 Гбайт
Продолжительность : 1 ч. 11 м.
Общий поток : 2702 Кбит/сек
Дата кодирования : UTC 2015-10-06 11:41:35
Программа кодирования : mkvmerge v5.8.0 ('No Sleep / Pillow') built on Sep 2 2012 15:37:04
Библиотека кодирования : libebml v1.2.3 + libmatroska v1.3.0
Видео
Идентификатор : 1
Формат : AVC
Формат/Информация : Advanced Video Codec
Профиль формата : High@L4.1
Параметр CABAC формата : Да
Параметр ReFrames формата : 15 кадров
Идентификатор кодека : V_MPEG4/ISO/AVC
Продолжительность : 1 ч. 11 м.
Битрейт : 2392 Кбит/сек
Ширина : 712 пикселей
Высота : 574 пикселя
Соотношение сторон : 4:3
Режим частоты кадров : Постоянный
Частота кадров : 25,000 кадров/сек
Цветовое пространство : YUV
Субдискретизация насыщенности : 4:2:0
Битовая глубина : 8 бит
Тип развёртки : Прогрессивная
Бит/(Пиксели*Кадры) : 0.234
Размер потока : 1,19 Гбайт (89%)
Библиотека кодирования : x264 core 146 r2538 121396c
Настройки программы : cabac=1 / ref=15 / deblock=1:-2:-2 / analyse=0x3:0x133 / me=umh / subme=10 / psy=1 / psy_rd=1.05:0.15 / mixed_ref=1 / me_range=32 / chroma_me=1 / trellis=2 / 8x8dct=1 / cqm=0 / deadzone=21,11 / fast_pskip=1 / chroma_qp_offset=-3 / threads=12 / lookahead_threads=2 / sliced_threads=0 / nr=0 / decimate=1 / interlaced=0 / bluray_compat=0 / constrained_intra=0 / bframes=9 / b_pyramid=2 / b_adapt=2 / b_bias=0 / direct=1 / weightb=1 / open_gop=0 / weightp=2 / keyint=250 / keyint_min=25 / scenecut=40 / intra_refresh=0 / rc=crf / mbtree=0 / crf=18.7 / qcomp=0.63 / qpmin=0 / qpmax=39 / qpstep=4 / ip_ratio=1.40 / pb_ratio=1.30 / aq=1:1.00
Язык : English
Default : Да
Forced : Нет
Цветовой диапазон : Limited
Основные цвета : BT.601 PAL
Характеристики трансфера : BT.470 System B, BT.470 System G
Коэффициенты матрицы : BT.601
Аудио
Идентификатор : 2
Формат : AC-3
Формат/Информация : Audio Coding 3
Расширение режима : CM (complete main)
Параметр Endianness формата : Big
Идентификатор кодека : A_AC3
Продолжительность : 1 ч. 11 м.
Вид битрейта : Постоянный
Битрейт : 256 Кбит/сек
Каналы : 2 канала
Расположение каналов : Front: L R
Частота : 48,0 КГц
Метод сжатия : С потерями
Задержка видео : 135 мс.
Размер потока : 131 Мбайт (9%)
Язык : Russian
Default : Да
Forced : Нет

[Цитировать]



Показать сообщения:    

Текущее время: 08-Дек 23:13

Часовой пояс: UTC + 3


Вы не можете начинать темы
Вы не можете отвечать на сообщения
Вы не можете редактировать свои сообщения
Вы не можете удалять свои сообщения
Вы не можете голосовать в опросах
Вы не можете прикреплять файлы к сообщениям
Вы не можете скачивать файлы

!ВНИМАНИЕ!
Сайт не предоставляет электронные версии произведений, а занимается лишь коллекционированием и каталогизацией ссылок, присылаемых и публикуемых на форуме нашими читателями. Если вы являетесь правообладателем какого-либо представленного материала и не желаете, чтобы ссылка на него находилась в нашем каталоге, свяжитесь с нами, и мы незамедлительно удалим ее. Файлы для обмена на трекере предоставлены пользователями сайта, и администрация не несет ответственности за их содержание. Просьба не заливать файлы, защищенные авторскими правами, а также файлы нелегального содержания!