[ Сегодня идет свободное скачивание без начисления Download ]


Статистика раздачи
Нет
 
   
 
Top  
 
 
До последнего вздоха / Inhale (2010) BDRip 1080p Название: До последнего вздоха
Оригинальное название: Inhale
Год выпуска: 2010
Жанр: Триллер, драма
Режиссер: Бальтасар Кормакур
В ролях: Миа Сталлард, Дермот Малруни, Дайан Крюгер, Сэм Шепард, Хорди Молья, Венсан Перес, Розанна Аркетт, Дэвид Селби, Сесар Рамос, Кристиан Феррер, Арлин Алькала, Хуан Авила, Ник Бэнкс, Ричард Барела, Мария Бетке, Пол Блотт, Тодд Тэтчер Кэш, Абрахам Чейдез, Эдуардо Дрэйвен, Кристиан Эскарио, Луи Франко, Кэролин Харви, Рафаэль Херрера, Лиза Хилл, Джиджи Хайз, Натали Марчиано
О фильме:
Семейная пара пускается во все тяжкие, чтобы найти своей дочери донора для сложной операции по трансплантации легких. Прокурор округа Пол Стэнтон и его жена Диана каждый день ждут новости, что нашелся донор для их смертельно больной дочери Хлои. Диагностированная редким прогрессирующим заболеванием легких, Хлои внесена в длинный список претендентов на пересадку легких. С ухудшением состояния дочери, родители в отчаянии идут на бецпрецендентные меры для того, чтобы организовать операцию. Поставив на кон карьеру, семью и собственную жизнь, Пол Стэнтон оказывается на перепутье, где вопрос поставлен недвусмысленно: спасти дочь или раскрыть массивную нелегальную сеть, деятельность которой уносит жизни многих невинных людей.

Страна: США, 26 Films
Продолжительность: 01:23:23
Перевод: Профессиональный многоголосый / Любительский многоголосый
Кодек: H.264
Качество: BDRip 1080p
Видео: MPEG-4 AVC, 10911 Кбит/с, 1920x1080, 23.976 кадр/с
Звук: Русский (AC3, 2 ch, 192 Кбит/с), (AC3, 6 ch, 448 Кбит/с), английский (DTS, 6 ch, 1510 Кбит/с)
Субтитры: Русские, английские

Инфо-файл

Полное имя : E:Inhale.2010.x264.BDRip.1080p.NovaLan.mkv
Формат : Matroska
Версия формата : Version 4 / Version 2
Размер файла : 7,56 Гбайт
Продолжительность : 1 ч. 23 м.
Общий поток : 13,0 Мбит/сек
Название фильма : Inhale 2010 - NovaLan
Дата кодирования : UTC 2015-10-22 19:44:41
Программа кодирования : mkvmerge v8.3.0 ('Over the Horizon') 64bit
Библиотека кодирования : libebml v1.3.1 + libmatroska v1.4.2
DURATION : 01:23:23.606000000
NUMBER_OF_FRAMES : 469088
NUMBER_OF_BYTES : 943805124
_STATISTICS_WRITING_APP : mkvmerge v8.3.0 ('Over the Horizon') 64bit
_STATISTICS_WRITING_DATE_UTC : 2015-10-22 19:44:41
_STATISTICS_TAGS : BPS DURATION NUMBER_OF_FRAMES NUMBER_OF_BYTES
Видео
Идентификатор : 1
Формат : AVC
Формат/Информация : Advanced Video Codec
Профиль формата : High@L4.1
Параметр CABAC формата : Да
Параметр ReFrames формата : 4 кадра
Идентификатор кодека : V_MPEG4/ISO/AVC
Продолжительность : 1 ч. 23 м.
Битрейт : 10,9 Мбит/сек
Ширина : 1920 пикселей
Высота : 1080 пикселей
Соотношение сторон : 16:9
Частота кадров : 23,976 кадра/сек
Цветовое пространство : YUV
Субдискретизация насыщенности : 4:2:0
Битовая глубина : 8 бит
Тип развёртки : Прогрессивная
Бит/(Пиксели*Кадры) : 0.219
Размер потока : 6,16 Гбайт (81%)
Заголовок : Sergei7721
Библиотека кодирования : x264 core 146 r2538 121396c
Настройки программы : cabac=1 / ref=4 / deblock=1:-1:-1 / analyse=0x3:0x113 / me=umh / subme=11 / psy=1 / psy_rd=1.00:0.20 / mixed_ref=1 / me_range=24 / chroma_me=1 / trellis=2 / 8x8dct=1 / cqm=0 / deadzone=21,11 / fast_pskip=0 / chroma_qp_offset=-3 / threads=12 / lookahead_threads=1 / sliced_threads=0 / nr=0 / decimate=0 / interlaced=0 / bluray_compat=0 / constrained_intra=0 / bframes=6 / b_pyramid=2 / b_adapt=2 / b_bias=0 / direct=3 / weightb=1 / open_gop=0 / weightp=2 / keyint=240 / keyint_min=23 / scenecut=40 / intra_refresh=0 / rc_lookahead=40 / rc=2pass / mbtree=0 / bitrate=10911 / ratetol=1.0 / qcomp=0.60 / qpmin=0 / qpmax=69 / qpstep=4 / cplxblur=20.0 / qblur=0.5 / vbv_maxrate=50000 / vbv_bufsize=62500 / nal_hrd=none / filler=0 / ip_ratio=1.40 / pb_ratio=1.30 / aq=1:1.00
Default : Да
Forced : Нет
DURATION : 01:22:59.975000000
NUMBER_OF_FRAMES : 119400
NUMBER_OF_BYTES : 6772200425
_STATISTICS_WRITING_APP : mkvmerge v8.3.0 ('Over the Horizon') 64bit
_STATISTICS_WRITING_DATE_UTC : 2015-10-22 19:44:41
_STATISTICS_TAGS : BPS DURATION NUMBER_OF_FRAMES NUMBER_OF_BYTES
Аудио #1
Идентификатор : 2
Формат : AC-3
Формат/Информация : Audio Coding 3
Расширение режима : CM (complete main)
Параметр Endianness формата : Big
Идентификатор кодека : A_AC3
Продолжительность : 1 ч. 23 м.
Вид битрейта : Постоянный
Битрейт : 192 Кбит/сек
Каналы : 2 канала
Расположение каналов : Front: L R
Частота : 48,0 КГц
Битовая глубина : 16 бит
Метод сжатия : С потерями
Размер потока : 115 Мбайт (1%)
Язык : Russian
Default : Да
Forced : Нет
Аудио #2
Идентификатор : 3
Формат : AC-3
Формат/Информация : Audio Coding 3
Расширение режима : CM (complete main)
Параметр Endianness формата : Big
Идентификатор кодека : A_AC3
Продолжительность : 1 ч. 23 м.
Вид битрейта : Постоянный
Битрейт : 448 Кбит/сек
Каналы : 6 каналов
Расположение каналов : Front: L C R, Side: L R, LFE
Частота : 48,0 КГц
Битовая глубина : 16 бит
Метод сжатия : С потерями
Размер потока : 267 Мбайт (3%)
Язык : Russian
Default : Нет
Forced : Нет
Аудио #3
Идентификатор : 4
Формат : DTS
Формат/Информация : Digital Theater Systems
Идентификатор кодека : A_DTS
Продолжительность : 1 ч. 23 м.
Вид битрейта : Постоянный
Битрейт : 1510 Кбит/сек
Каналы : 6 каналов
Расположение каналов : Front: L C R, Side: L R, LFE
Частота : 48,0 КГц
Битовая глубина : 24 бит
Метод сжатия : С потерями
Размер потока : 901 Мбайт (12%)
Язык : English
Default : Нет
Forced : Нет
Текст #1
Идентификатор : 5
Формат : UTF-8
Идентификатор кодека : S_TEXT/UTF8
Идентификатор кодека/Информация : UTF-8 Plain Text
Язык : Russian
Default : Нет
Forced : Нет
Текст #2
Идентификатор : 6
Формат : UTF-8
Идентификатор кодека : S_TEXT/UTF8
Идентификатор кодека/Информация : UTF-8 Plain Text
Язык : English
Default : Нет
Forced : Нет
Меню
00:00:00.000 : en:00:00:00.000
00:07:45.006 : en:00:07:45.006
00:10:34.008 : en:00:10:34.008
00:16:49.008 : en:00:16:49.008
00:25:59.933 : en:00:25:59.933
00:35:20.952 : en:00:35:20.952
00:44:27.957 : en:00:44:27.957
00:52:31.982 : en:00:52:31.982
01:01:52.000 : en:01:01:52.000
01:09:07.894 : en:01:09:07.894
01:15:04.917 : en:01:15:04.917
01:18:11.896 : en:01:18:11.896
01:18:29.914 : en:01:18:29.914

Скриншоты

[Цитировать]



Показать сообщения:    

Текущее время: 09-Дек 10:42

Часовой пояс: UTC + 3


Вы не можете начинать темы
Вы не можете отвечать на сообщения
Вы не можете редактировать свои сообщения
Вы не можете удалять свои сообщения
Вы не можете голосовать в опросах
Вы не можете прикреплять файлы к сообщениям
Вы не можете скачивать файлы

!ВНИМАНИЕ!
Сайт не предоставляет электронные версии произведений, а занимается лишь коллекционированием и каталогизацией ссылок, присылаемых и публикуемых на форуме нашими читателями. Если вы являетесь правообладателем какого-либо представленного материала и не желаете, чтобы ссылка на него находилась в нашем каталоге, свяжитесь с нами, и мы незамедлительно удалим ее. Файлы для обмена на трекере предоставлены пользователями сайта, и администрация не несет ответственности за их содержание. Просьба не заливать файлы, защищенные авторскими правами, а также файлы нелегального содержания!