[ Сегодня идет свободное скачивание без начисления Download ]


Статистика раздачи
Нет
 
   
 
Top  
 
 
Маленькая принцесса (1997) DVDRip Информация о фильме
Название: Маленькая принцесса
Год выхода: 1997
Жанр: Сказка, семейный
Режиссер: Владимир Грамматиков
В ролях: Настя Меськова, Ляна Ильницкая, Маша Машкова, Катя Михайловская, Демидова, Алла Сергеевна, Ясулович, Игорь Николаевич,Егор Грамматиков
О фильме:
Это романтическое повествование о маленькой девочке, которой пришлось пройти нелегкие испытания, происходит в конце XIX века в Лондоне. Капитан Кру привозит свою любимую дочь Сару, которую он называет "маленькой принцессой", в один из лучших и самых дорогих пансионов, чтобы она получила хорошее образование. Девочка тяжело переносит разлуку с отцом. Добрая, отзывчивая Сара быстро находит новых подруг даже среди слуг. Ее ум самостоятельность и уважительное отношение к людям покоряют всех. Однажды приходит трагическая весть - отец Сары капитан Кру умирает в Индии, не оставив дочери ни копейки. Сара нищая… Воспитанной в богатстве и достатке юной героине предстоит пройти через ненависть и унижение, голод и нищету. Но ее доброта, ум и находчивость помогают преодолеть все невзгоды. И конечно же, как в каждой рождественской сказке, все оканчивается хорошо.

Страна: Россия
Студия: Киностудия Глобус
Продолжительность: 01:28:26
Перевод: Не требуется
Файл
Кодек: XviD
Качество: DVDRip
Видео: 512x384 (1.33:1), 25 fps, XviD build 73 ~1040 kbps avg, 0.21 bit/pixel
Звук: 48 kHz, MPEG Layer 3, 2 ch, ~128.00 kbps avg
Субтитры: Отсутствует
Семпл

MI

General
Complete name : D:Изготовление риповMalenkaja.princessa.1997.DVDrip by shkiper.avi
Format : AVI
Format/Info : Audio Video Interleave
File size : 745 MiB
Duration : 1h 28mn
Overall bit rate : 1 178 Kbps
Writing application : VirtualDubMod 1.5.10.3 | www.virtualdub-fr.org || (build 2550/release)
Writing library : VirtualDubMod build 2550/release
Video
ID : 0
Format : MPEG-4 Visual
Format profile : Advanced Simple@L5
Format settings, BVOP : 1
Format settings, QPel : No
Format settings, GMC : No warppoints
Format settings, Matrix : Custom
Codec ID : XVID
Codec ID/Hint : XviD
Duration : 1h 28mn
Bit rate : 1 040 Kbps
Width : 512 pixels
Height : 384 pixels
Display aspect ratio : 4:3
Frame rate : 25.000 fps
Color space : YUV
Chroma subsampling : 4:2:0
Bit depth : 8 bits
Scan type : Progressive
Compression mode : Lossy
Bits/(Pixel*Frame) : 0.212
Stream size : 658 MiB (88%)
Writing library : XviD 73
Audio
ID : 1
Format : MPEG Audio
Format version : Version 1
Format profile : Layer 3
Mode : Joint stereo
Mode extension : MS Stereo
Codec ID : 55
Codec ID/Hint : MP3
Duration : 1h 28mn
Bit rate mode : Constant
Bit rate : 128 Kbps
Channel(s) : 2 channels
Sampling rate : 48.0 KHz
Compression mode : Lossy
Stream size : 81.0 MiB (11%)
Alignment : Aligned on interleaves
Interleave, duration : 40 ms (1.00 video frame)
Interleave, preload duratio : 504 ms
Writing library : LAME3.99r
Encoding settings : -m j -V 4 -q 2 -lowpass 17 -b 128

Скриншоты

[Цитировать]



Показать сообщения:    

Текущее время: 09-Дек 12:47

Часовой пояс: UTC + 3


Вы не можете начинать темы
Вы не можете отвечать на сообщения
Вы не можете редактировать свои сообщения
Вы не можете удалять свои сообщения
Вы не можете голосовать в опросах
Вы не можете прикреплять файлы к сообщениям
Вы не можете скачивать файлы

!ВНИМАНИЕ!
Сайт не предоставляет электронные версии произведений, а занимается лишь коллекционированием и каталогизацией ссылок, присылаемых и публикуемых на форуме нашими читателями. Если вы являетесь правообладателем какого-либо представленного материала и не желаете, чтобы ссылка на него находилась в нашем каталоге, свяжитесь с нами, и мы незамедлительно удалим ее. Файлы для обмена на трекере предоставлены пользователями сайта, и администрация не несет ответственности за их содержание. Просьба не заливать файлы, защищенные авторскими правами, а также файлы нелегального содержания!