[ Сегодня идет свободное скачивание без начисления Download ]


Статистика раздачи
Нет
 
   
 
Top  
 
 
Далеко по соседству / Quartier lointain (2010) BDRip 720p Название: Далеко по соседству
Оригинальное название: Quartier lointain
Год выпуска: 2010
Жанр: Фэнтези, драма
Выпущено: Германия, Франция, Бельгия, Люксембург, Entre Chien et Loup, Samsa Film, Archipel 35
Режиссер: Сэм Гарбарски
В ролях: Паскаль Греггори, Джонатан Цассаи, Александра Мария Лара, Лео Легран, Лаура Мартин, Пьер-Луи Беллет, Таня Гарбарски, Луис Бьянчи
О фильме: К пятидесяти годам у Томаса за спиной престижная работа, счет в банке, жена и дети. А впереди — серая и неинтересная жизнь. Однажды Томас по ошибке садится не на тот поезд и оказывается в городе своего детства. Именно здесь сорок лет назад случилась страшная трагедия, от которой мать так и не смогла оправиться. Чудесное превращение дает Томасу возможность вернуться в прошлое. Оказавшись в собственном теле в четырнадцатилетнем возрасте, но с опытом пятидесятилетней жизни, он вновь встречает первую школьную любовь, старых друзей, любимую сестру и верного пса. Встречает и отца, который пока еще не ушел из семьи. Возможно, весь смысл удивительного путешествия в том и состоит, чтобы предотвратить трагедию?..

Качество: BDRip 720p
Видео: MPEG-4 AVC, 5816 Кбит/с, 1280x692, 24.000 кадр/с
Аудио: Русский, французский (DTS, 6 ch, 1152 Кбит/с)
Продолжительность: 01:37:59
Перевод: Профессиональный многоголосый
Субтитры: Русские

Скриншоты

MediaInfo

Общее
Уникальный идентификатор : 200245089680732205601550215397729928951 (0x96A5CD2B62BC06DB969D89F74F8886F7)
Полное имя : Quartier.lointain.2010.P.Rus.Fre.BDRip.720p.x264.mkv
Формат : Matroska
Версия формата : Version 2
Размер файла : 5,86 Гбайт
Продолжительность : 1 ч. 41 м.
Общий поток : 8285 Кбит/сек
Дата кодирования : UTC 2011-10-22 11:26:52
Программа кодирования : mkvmerge v5.0.1 ('Es ist Sommer') built on Oct 9 2011 11:55:43
Библиотека кодирования : libebml v1.2.2 + libmatroska v1.3.0
Видео
Идентификатор : 1
Формат : AVC
Формат/Информация : Advanced Video Codec
Профиль формата : High@L4.1
Параметр CABAC формата : Да
Параметр ReFrames формата : 8 кадров
Идентификатор кодека : V_MPEG4/ISO/AVC
Продолжительность : 1 ч. 41 м.
Битрейт : 5816 Кбит/сек
Ширина : 1280 пикселей
Высота : 692 пикселя
Соотношение сторон : 1,85:1
Режим частоты кадров : Постоянный
Частота кадров : 24,000 кадра/сек
Цветовое пространство : YUV
Субдискретизация насыщенности : 4:2:0
Битовая глубина : 8 бит
Тип развёртки : Прогрессивная
Бит/(Пиксели*Кадры) : 0.274
Размер потока : 4,11 Гбайт (70%)
Библиотека кодирования : x264 core 116 r2074 2641b9e
Настройки программы : cabac=1 / ref=8 / deblock=1:-2:-2 / analyse=0x3:0x133 / me=umh / subme=11 / psy=1 / psy_rd=1.00:0.00 / mixed_ref=1 / me_range=32 / chroma_me=1 / trellis=2 / 8x8dct=1 / cqm=0 / deadzone=21,11 / fast_pskip=1 / chroma_qp_offset=-2 / threads=3 / sliced_threads=0 / nr=0 / decimate=1 / interlaced=0 / bluray_compat=0 / constrained_intra=0 / bframes=10 / b_pyramid=2 / b_adapt=2 / b_bias=0 / direct=3 / weightb=1 / open_gop=0 / weightp=2 / keyint=240 / keyint_min=24 / scenecut=40 / intra_refresh=0 / rc_lookahead=50 / rc=crf / mbtree=1 / crf=17.0 / qcomp=0.60 / qpmin=10 / qpmax=51 / qpstep=4 / ip_ratio=1.40 / aq=1:1.00
Язык : French
Default : Да
Forced : Нет
Цветовой диапазон : Limited
Основные цвета : BT.709
Характеристики трансфера : BT.709
Коэффициенты матрицы : BT.709
Аудио #1
Идентификатор : 2
Формат : DTS
Формат/Информация : Digital Theater Systems
Режим : 16
Параметр Endianness формата : Big
Идентификатор кодека : A_DTS
Продолжительность : 1 ч. 41 м.
Вид битрейта : Постоянный
Битрейт : 1152 Кбит/сек
Каналы : 6 каналов
Расположение каналов : Front: L C R, Side: L R, LFE
Частота : 48,0 КГц
Битовая глубина : 16 бит
Метод сжатия : С потерями
Размер потока : 834 Мбайт (14%)
Язык : Russian
Default : Да
Forced : Нет
Аудио #2
Идентификатор : 3
Формат : DTS
Формат/Информация : Digital Theater Systems
Режим : 16
Параметр Endianness формата : Big
Идентификатор кодека : A_DTS
Продолжительность : 1 ч. 41 м.
Вид битрейта : Постоянный
Битрейт : 1152 Кбит/сек
Каналы : 6 каналов
Расположение каналов : Front: L C R, Side: L R, LFE
Частота : 48,0 КГц
Битовая глубина : 16 бит
Метод сжатия : С потерями
Размер потока : 834 Мбайт (14%)
Язык : French
Default : Нет
Forced : Нет
Текст
Идентификатор : 4
Формат : UTF-8
Идентификатор кодека : S_TEXT/UTF8
Идентификатор кодека/Информация : UTF-8 Plain Text
Язык : Russian
Default : Нет
Forced : Нет
Меню
00:00:00.000 : :Chapter 01
00:05:25.583 : :Chapter 02
00:10:19.750 : :Chapter 03
00:14:01.916 : :Chapter 04
00:17:22.666 : :Chapter 05
00:21:26.541 : :Chapter 06
00:26:50.958 : :Chapter 07
00:31:57.625 : :Chapter 08
00:36:24.208 : :Chapter 09
00:41:41.291 : :Chapter 10
00:47:23.208 : :Chapter 11
00:53:29.458 : :Chapter 12
00:58:43.541 : :Chapter 13
01:02:40.083 : :Chapter 14
01:10:16.958 : :Chapter 15
01:14:37.166 : :Chapter 16
01:20:24.875 : :Chapter 17
01:26:18.708 : :Chapter 18
01:37:59.416 : :Chapter 19

[Цитировать]



Показать сообщения:    

Текущее время: 10-Дек 23:33

Часовой пояс: UTC + 3


Вы не можете начинать темы
Вы не можете отвечать на сообщения
Вы не можете редактировать свои сообщения
Вы не можете удалять свои сообщения
Вы не можете голосовать в опросах
Вы не можете прикреплять файлы к сообщениям
Вы не можете скачивать файлы

!ВНИМАНИЕ!
Сайт не предоставляет электронные версии произведений, а занимается лишь коллекционированием и каталогизацией ссылок, присылаемых и публикуемых на форуме нашими читателями. Если вы являетесь правообладателем какого-либо представленного материала и не желаете, чтобы ссылка на него находилась в нашем каталоге, свяжитесь с нами, и мы незамедлительно удалим ее. Файлы для обмена на трекере предоставлены пользователями сайта, и администрация не несет ответственности за их содержание. Просьба не заливать файлы, защищенные авторскими правами, а также файлы нелегального содержания!