[ Сегодня идет свободное скачивание без начисления Download ]


Статистика раздачи
Нет
 
   
 
Top  
 
 
Плохой лейтенант / The Bad Lieutenant: Port of Call - New Orleans (2009) BDRip 720p Русское название: Плохой лейтенант
Оригинальное название: The Bad Lieutenant: Port of Call - New Orleans
Год выпуска: 2009
Жанр: драма, криминал
Выпущено: США
Режиссер: Вернер Херцог
В ролях: Николас Кейдж , Ева Мендес , Вэл Килмер , Иксзибит , Файруза Балк , Шон Хэтоси , Дженнифер Кулидж , Том Бауэр , Вонди Куртис-Холл , Брэд Дуриф , Дензел Уитакер , Ирма П. Холл
Перевод: Профессиональный многоголосый [Лицензия], Авторский (одноголосый)

Сюжет фильма:
Терренс МакДонах - потомственный полицейский, живущий в Новом Орлеане. Его уважает начальство и коллеги. Но у Терренса есть и «другое лицо». Он замешан в воровстве и торговле наркотиками, да и сам является наркоманом. Пристрастия этого «плохого полицейского» - секс и азартные игры. Начальство поручает МакДонаху новое сложное дело - расследовать зверское убийство сенегальских эмигрантов. Сможет ли лейтенант совладать со своей «темной, порочной» стороной и выполнить задание?

Качество: BDRip 720p
Формат: AVC (библиотека кодирования x.264)
Контейнер (Расширение): MKV
Видео: 1280x690, 4827 Кбит/сек, 23,976 кадр/сек, 0,228 Бит/[Пиксели*Кадры]
Аудио №1: русский / AC3 / 5.1 / 48 kHz / 640 kbps / 16 bit |Профессиональный многоголосый|
Аудио №2: русский / AC3 / 5.1 / 48 kHz / 640 kbps / 16 bit |Авторский, Ю.Немахов|
Аудио №3: английский / AC3 / 5.1 / 48 kHz / 640 kbps /
Субтитры: русские
Навигация по главам(Чаптеры): есть
Продолжительность: 02:02:10

MediaInfo

Format : Matroska
Format version : Version 2
File size : 5.76 GiB
Duration : 2h 2mn
Overall bit rate : 6 748 Kbps
Movie name : The Bad Lieutenant.(2009).BDRip.720p.[denis100]
Encoded date : UTC 2015-10-25 07:23:34
Writing application : mkvmerge v5.8.0 ('No Sleep / Pillow') built on Sep 2 2012 15:37:04
Writing library : libebml v1.2.3 + libmatroska v1.3.0
Video
ID : 1
Format : AVC
Format/Info : Advanced Video Codec
Format profile : [email protected]
Format settings, CABAC : Yes
Format settings, ReFrames : 9 frames
Codec ID : V_MPEG4/ISO/AVC
Duration : 2h 2mn
Bit rate : 4 827 Kbps
Width : 1 280 pixels
Height : 690 pixels
Display aspect ratio : 1.855
Frame rate : 23.976 fps
Color space : YUV
Chroma subsampling : 4:2:0
Bit depth : 8 bits
Scan type : Progressive
Bits/(Pixel*Frame) : 0.228
Stream size : 4.01 GiB (70%)
Title : The Bad Lieutenant.(2009).BDRip.720p.[denis100]
Writing library : x264 core 148 r2597 e86f3a1
Encoding settings : cabac=1 / ref=9 / deblock=1:-3:-3 / analyse=0x3:0x133 / me=umh / subme=11 / psy=1 / psy_rd=1.00:0.00 / mixed_ref=1 / me_range=32 / chroma_me=1 / trellis=2 / 8x8dct=1 / cqm=0 / deadzone=21,11 / fast_pskip=0 / chroma_qp_offset=-2 / threads=6 / lookahead_threads=1 / sliced_threads=0 / nr=0 / decimate=1 / interlaced=0 / bluray_compat=0 / constrained_intra=0 / bframes=10 / b_pyramid=2 / b_adapt=2 / b_bias=0 / direct=3 / weightb=1 / open_gop=0 / weightp=2 / keyint=240 / keyint_min=23 / scenecut=40 / intra_refresh=0 / rc=2pass / mbtree=0 / bitrate=4827 / ratetol=1.0 / qcomp=0.60 / qpmin=0 / qpmax=69 / qpstep=4 / cplxblur=20.0 / qblur=0.5 / ip_ratio=1.40 / pb_ratio=1.30 / aq=1:1.00
Language : English
Default : Yes
Forced : No
Audio #1
ID : 2
Format : AC-3
Format/Info : Audio Coding 3
Mode extension : CM (complete main)
Codec ID : A_AC3
Duration : 2h 2mn
Bit rate mode : Constant
Bit rate : 640 Kbps
Channel(s) : 6 channels
Channel positions : Front: L C R, Side: L R, LFE
Sampling rate : 48.0 KHz
Bit depth : 16 bits
Compression mode : Lossy
Stream size : 559 MiB (9%)
Title : Профессиональный многоголосый
Language : Russian
Default : No
Forced : No
Audio #2
ID : 3
Format : AC-3
Format/Info : Audio Coding 3
Mode extension : CM (complete main)
Codec ID : A_AC3
Duration : 2h 2mn
Bit rate mode : Constant
Bit rate : 640 Kbps
Channel(s) : 6 channels
Channel positions : Front: L C R, Side: L R, LFE
Sampling rate : 48.0 KHz
Bit depth : 16 bits
Compression mode : Lossy
Stream size : 559 MiB (9%)
Title : Авторский, Ю. Немахов
Language : Russian
Default : No
Forced : No
Audio #3
ID : 4
Format : AC-3
Format/Info : Audio Coding 3
Mode extension : CM (complete main)
Codec ID : A_AC3
Duration : 2h 2mn
Bit rate mode : Constant
Bit rate : 640 Kbps
Channel(s) : 6 channels
Channel positions : Front: L C R, Side: L R, LFE
Sampling rate : 48.0 KHz
Bit depth : 16 bits
Compression mode : Lossy
Stream size : 559 MiB (9%)
Language : English
Default : No
Forced : No
Text
ID : 5
Format : UTF-8
Codec ID : S_TEXT/UTF8
Codec ID/Info : UTF-8 Plain Text
Language : Russian
Default : No
Forced : No
Menu
00:00:00.000 : en:00:00:00.000
00:06:09.035 : en:00:06:09.035
00:17:00.184 : en:00:17:00.184
00:26:41.766 : en:00:26:41.766
00:36:14.588 : en:00:36:14.588
00:48:36.621 : en:00:48:36.621
00:59:06.166 : en:00:59:06.166
01:10:43.363 : en:01:10:43.363
01:22:19.516 : en:01:22:19.516
01:32:07.563 : en:01:32:07.563
01:44:29.387 : en:01:44:29.387
01:50:25.201 : en:01:50:25.201
01:56:47.375 : en:01:56:47.375

x264

x264 [info]: frame I:910 Avg QP:14.76 size:123962
x264 [info]: frame P:39100 Avg QP:17.41 size: 45132
x264 [info]: frame B:135741 Avg QP:19.10 size: 18742
x264 [info]: consecutive B-frames: 2.1% 2.9% 11.2% 16.6% 16.7% 40.1% 5.8% 1.9% 1.2% 0.8% 0.8%

Скриншоты

[Цитировать]



Показать сообщения:    

Текущее время: 04-Дек 03:00

Часовой пояс: UTC + 3


Вы не можете начинать темы
Вы не можете отвечать на сообщения
Вы не можете редактировать свои сообщения
Вы не можете удалять свои сообщения
Вы не можете голосовать в опросах
Вы не можете прикреплять файлы к сообщениям
Вы не можете скачивать файлы

!ВНИМАНИЕ!
Сайт не предоставляет электронные версии произведений, а занимается лишь коллекционированием и каталогизацией ссылок, присылаемых и публикуемых на форуме нашими читателями. Если вы являетесь правообладателем какого-либо представленного материала и не желаете, чтобы ссылка на него находилась в нашем каталоге, свяжитесь с нами, и мы незамедлительно удалим ее. Файлы для обмена на трекере предоставлены пользователями сайта, и администрация не несет ответственности за их содержание. Просьба не заливать файлы, защищенные авторскими правами, а также файлы нелегального содержания!