[ Сегодня идет свободное скачивание без начисления Download ]


Статистика раздачи
Нет
 
   
 
Top  
 
 
Дельта Год выпуска: 2013
Производство: «Мостелефильм»
Жанр: боевик
Продолжительность: ~ 00:44:00
Режиссёр: Сергей Лялин, Сергей Виноградов
В ролях: Вадим Колганов, Анна Казючиц, Сергей Цепов, Степан Абрамов, Александр Баширов, Александр Тютин, Денис Карасёв, Сергей Селин, Мария Хижняк, Татьяна Исаева, Геннадий Матвеев, Максим Артамонов, Владимир Жарков, Надежда Азоркина, Евгений Смирнов-Иваницкий, Александр Воробьёв, Алексей Костерев, Юрий Овчинников, Валерий Новиков, Дим Устюжанин, Джамболат Сланов, Елена Мироненко, Ева Авеева, Юрий Архангельский, Тимур Ефременков, Иван Гар, Антонина Дивина, Игорь Жижикин, Андрей Латушко, Григорий Южаков, Виталий Гашаков, Алексей Клинов, Татьяна Чернявская, Мария Ермакова, Тамара Болотаева, Олег Штефанко, Алексей Булдаков, Светлана Чуйкина, Максим Юдин, Евгений Ермаков, Матвей Зубалевич, Никита Зверев, Владислав Демидов
Описание: Там, где царит беспредел, где закон никому не писан, найдется настоящий мужик, который пойдет на принцип!
Андрей Бекетов приехал в дельту Волги отдохнуть и навестить своего друга Павла Лобанова, работающего инспектором рыбоохраны. Когда-то они вместе служили в спецназе, потом Лобанов вернулся в родную деревню, а Бекетов ушел на работу в городскую полицию, но был оттуда уволен за излишнюю принципиальность. Бекетов никогда не бывал в этих местах и с обстоятельствами местной жизни и работы знаком не был. Лобанов рассказал ему о царящих здесь нравах. Оказалось, что на этом сравнительно небольшом участке земли происходят события, сравнимые по накалу с колумбийскими наркострастями. Практически все мужское население — профессиональные браконьеры. Это, разумеется, не афишируется, ведь у каждого из них есть какая-то мирная работа, семья, дети, но дело жизни каждого — икорный бизнес. Браконьеры в этих местах не действуют в одиночку, они объединены в банды — в каждом селе своя. Оружие есть у всех — разрешенное и неразрешенное. Между бандами идет война, которая ожесточается во время путины. В это время сюда прибывает ОМОН и расквартировывается по селам. Бойцы гасят конфликты между бандами и помогают инспекторам защитить реку. Сбыт икры – сложная процедура. На месте лова, куда приезжают «купцы», ее стоимость существенно ниже, чем в более отдаленных местах. На каждом этапе пути к Москве стоимость возрастает в разы. Если браконьер решается сам вывести икру, он обрекает себя на чрезвычайно опасное приключение, ценой которого может стать его жизнь. В сложной структуре икорного бизнеса, разумеется, не обходится без стукачей. Они есть по обе стороны закона: одни предупреждают браконьеров, другие доносят на бандитов. Разоблаченных стукачей «из своих» браконьеры казнят показательно. Так, во время очередного ночного дежурства, Лобанова убивают на глазах у Бекетова. Андрей принимает решение остаться в этих местах, чтобы объяснить местной братве, кто тут главный! Первая его цель — найти убийц друга, но на этом он не остановится. Став инспектором рыбохраны, Бекетов бросает вызов всей икорной мафии...
Качество: SATRip
Формат: AVI
Видео кодек: XviD
Аудио кодек: MP3
Видео: XviD, 720x416, 25 fps, 1500 Кбит/с, 0.199 bit/pixel
Аудио: MPEG Audio Layer 3, 48000Hz, 2ch, 128Kbps

MI

Общее
Полное имя : D:\Дельта\Deljta.01.2013.SATRip.avi
Формат : AVI
Формат/Информация : Audio Video Interleave
Размер файла : 524 Мбайт
Продолжительность : 44 м.
Общий поток : 1632 Кбит/сек
Программа кодирования : VirtualDubMod 1.5.10.2 (build 2540/release)
Библиотека кодирования : VirtualDub build 32507/release
Видео
Идентификатор : 0
Формат : MPEG-4 Visual
Профиль формата : Advanced [email protected]
Параметр BVOP формата : 1
Параметр QPel формата : Нет
Параметр GMC формата : Без точки перехода
Параметр матрицы формата : Выборочная
Идентификатор кодека : XVID
Идентификатор кодека/Подсказка : XviD
Продолжительность : 44 м.
Битрейт : 1500 Кбит/сек
Ширина : 720 пикселя
Высота : 416 пикселей
Соотношение сторон : 1.731
Частота кадров : 25,000 кадров/сек
Цветовое пространство : YUV
Субдискретизация насыщенности : 4:2:0
Битовая глубина : 8 бит
Тип развёртки : Прогрессивная
Метод сжатия : С потерями
Бит/(Пиксели*Кадры) : 0.199
Размер потока : 480 Мбайт (92%)
Библиотека кодирования : XviD 64
Аудио
Идентификатор : 1
Формат : MPEG Audio
Версия формата : Version 1
Профиль формата : Layer 3
Режим : Joint stereo
Расширение режима : MS Stereo
Идентификатор кодека : 55
Идентификатор кодека/Подсказка : MP3
Продолжительность : 44 м.
Вид битрейта : Постоянный
Битрейт : 128 Кбит/сек
Каналы : 2 канала
Частота : 48,0 КГц
Метод сжатия : С потерями
Размер потока : 42.6 Мбайт (8%)
Выравнивание : Соединение по промежуткам
Продолжительность промежутка : 40 мс. (1,00 видеокадра)
Время предзагрузки промежутка : 504 мс.
Библиотека кодирования : LAME3.90.3

Скриншоты

[Цитировать]



Показать сообщения:    

Текущее время: 06-Дек 08:41

Часовой пояс: UTC + 3


Вы не можете начинать темы
Вы не можете отвечать на сообщения
Вы не можете редактировать свои сообщения
Вы не можете удалять свои сообщения
Вы не можете голосовать в опросах
Вы не можете прикреплять файлы к сообщениям
Вы не можете скачивать файлы

!ВНИМАНИЕ!
Сайт не предоставляет электронные версии произведений, а занимается лишь коллекционированием и каталогизацией ссылок, присылаемых и публикуемых на форуме нашими читателями. Если вы являетесь правообладателем какого-либо представленного материала и не желаете, чтобы ссылка на него находилась в нашем каталоге, свяжитесь с нами, и мы незамедлительно удалим ее. Файлы для обмена на трекере предоставлены пользователями сайта, и администрация не несет ответственности за их содержание. Просьба не заливать файлы, защищенные авторскими правами, а также файлы нелегального содержания!